  0
SECTION
  2
HEADER
  9
$ACADVER
  1
AC1015
  9
$ACADMAINTVER
 70
               6
  9
$DWGCODEPAGE
  3
ANSI_932
  9
$INSBASE
 10
0.0
 20
0.0
 30
0.0
  9
$EXTMIN
 10
-975.00000000024124
 20
-1431.5255224711129
 30
-14.834305555555554
  9
$EXTMAX
 10
975.00000000024124
 20
1405.9972926412995
 30
14.834305555555554
  9
$LIMMIN
 10
0.0
 20
0.0
  9
$LIMMAX
 10
0.0
 20
0.0
  9
$ORTHOMODE
 70
               0
  9
$REGENMODE
 70
               1
  9
$FILLMODE
 70
               1
  9
$QTEXTMODE
 70
               0
  9
$MIRRTEXT
 70
               1
  9
$LTSCALE
 40
50.799999999999997
  9
$ATTMODE
 70
               1
  9
$TEXTSIZE
 40
0.2
  9
$TRACEWID
 40
1.0
  9
$TEXTSTYLE
  7
Standard
  9
$CLAYER
  8
PLT70-0102
  9
$CELTYPE
  6
Continuous
  9
$CECOLOR
 62
             256
  9
$CELTSCALE
 40
1.0
  9
$DISPSILH
 70
               0
  9
$DIMSCALE
 40
1.0
  9
$DIMASZ
 40
31.75
  9
$DIMEXO
 40
0.0
  9
$DIMDLI
 40
6.9999999999999396
  9
$DIMRND
 40
0.0
  9
$DIMDLE
 40
0.0
  9
$DIMEXE
 40
19.999999999996199
  9
$DIMTP
 40
0.0
  9
$DIMTM
 40
0.0
  9
$DIMTXT
 40
24.432617187500004
  9
$DIMCEN
 40
0.0
  9
$DIMTSZ
 40
0.0
  9
$DIMTOL
 70
               0
  9
$DIMLIM
 70
               0
  9
$DIMTIH
 70
               0
  9
$DIMTOH
 70
               0
  9
$DIMSE1
 70
               0
  9
$DIMSE2
 70
               0
  9
$DIMTAD
 70
               1
  9
$DIMZIN
 70
              11
  9
$DIMBLK
  1
VW_FILLEDARROW
  9
$DIMASO
 70
               1
  9
$DIMSHO
 70
               1
  9
$DIMPOST
  1
<>
  9
$DIMAPOST
  1
[]
  9
$DIMALT
 70
               0
  9
$DIMALTD
 70
               1
  9
$DIMALTF
 40
1.0
  9
$DIMLFAC
 40
1.0
  9
$DIMTOFL
 70
               0
  9
$DIMTVP
 40
0.0
  9
$DIMTIX
 70
               1
  9
$DIMSOXD
 70
               0
  9
$DIMSAH
 70
               0
  9
$DIMBLK1
  1

  9
$DIMBLK2
  1

  9
$DIMSTYLE
  2
JIS
  9
$DIMCLRD
 70
               0
  9
$DIMCLRE
 70
               0
  9
$DIMCLRT
 70
               0
  9
$DIMTFAC
 40
1.0
  9
$DIMGAP
 40
1.00000000000108
  9
$DIMJUST
 70
               0
  9
$DIMSD1
 70
               0
  9
$DIMSD2
 70
               0
  9
$DIMTOLJ
 70
               1
  9
$DIMTZIN
 70
              11
  9
$DIMALTZ
 70
              11
  9
$DIMALTTZ
 70
              11
  9
$DIMUPT
 70
               0
  9
$DIMDEC
 70
               1
  9
$DIMTDEC
 70
               1
  9
$DIMALTU
 70
               2
  9
$DIMALTTD
 70
               2
  9
$DIMTXSTY
  7
ＭＳ ゴシック
  9
$DIMAUNIT
 70
               0
  9
$DIMADEC
 70
               2
  9
$DIMALTRND
 40
0.0
  9
$DIMAZIN
 70
               0
  9
$DIMDSEP
 70
              46
  9
$DIMATFIT
 70
               0
  9
$DIMFRAC
 70
               2
  9
$DIMLDRBLK
  1

  9
$DIMLUNIT
 70
               2
  9
$DIMLWD
 70
              -2
  9
$DIMLWE
 70
              -2
  9
$DIMTMOVE
 70
               0
  9
$LUNITS
 70
               2
  9
$LUPREC
 70
               4
  9
$SKETCHINC
 40
0.1
  9
$FILLETRAD
 40
0.0
  9
$AUNITS
 70
               0
  9
$AUPREC
 70
               0
  9
$MENU
  1
acad
  9
$ELEVATION
 40
0.0
  9
$PELEVATION
 40
0.0
  9
$THICKNESS
 40
0.0
  9
$LIMCHECK
 70
               0
  9
$CHAMFERA
 40
0.0
  9
$CHAMFERB
 40
0.0
  9
$CHAMFERC
 40
0.0
  9
$CHAMFERD
 40
0.0
  9
$SKPOLY
 70
               0
  9
$TDCREATE
 40
2456037.643773148
  9
$TDUCREATE
 40
0.000000000
  9
$TDUPDATE
 40
2456037.643773148
  9
$TDUUPDATE
 40
0.000000000
  9
$TDINDWG
 40
0.0000000000
  9
$TDUSRTIMER
 40
0.0000000000
  9
$USRTIMER
 70
               1
  9
$ANGBASE
 50
0.0
  9
$ANGDIR
 70
               0
  9
$PDMODE
 70
               1
  9
$PDSIZE
 40
-2.0
  9
$PLINEWID
 40
0.0
  9
$SPLFRAME
 70
               0
  9
$SPLINETYPE
 70
               6
  9
$SPLINESEGS
 70
               8
  9
$HANDSEED
  5
367
  9
$SURFTAB1
 70
               6
  9
$SURFTAB2
 70
               6
  9
$SURFTYPE
 70
               6
  9
$SURFU
 70
               6
  9
$SURFV
 70
               6
  9
$UCSBASE
  2

  9
$UCSNAME
  2

  9
$UCSORG
 10
0.0
 20
0.0
 30
0.0
  9
$UCSXDIR
 10
1.0
 20
0.0
 30
0.0
  9
$UCSYDIR
 10
0.0
 20
1.0
 30
0.0
  9
$UCSORTHOREF
  2

  9
$UCSORTHOVIEW
 70
               0
  9
$UCSORGTOP
 10
0.0
 20
0.0
 30
0.0
  9
$UCSORGBOTTOM
 10
0.0
 20
0.0
 30
0.0
  9
$UCSORGLEFT
 10
0.0
 20
0.0
 30
0.0
  9
$UCSORGRIGHT
 10
0.0
 20
0.0
 30
0.0
  9
$UCSORGFRONT
 10
0.0
 20
0.0
 30
0.0
  9
$UCSORGBACK
 10
0.0
 20
0.0
 30
0.0
  9
$PUCSBASE
  2

  9
$PUCSNAME
  2

  9
$PUCSORG
 10
0.0
 20
0.0
 30
0.0
  9
$PUCSXDIR
 10
1.0
 20
0.0
 30
0.0
  9
$PUCSYDIR
 10
0.0
 20
1.0
 30
0.0
  9
$PUCSORTHOREF
  2

  9
$PUCSORTHOVIEW
 70
               0
  9
$PUCSORGTOP
 10
0.0
 20
0.0
 30
0.0
  9
$PUCSORGBOTTOM
 10
0.0
 20
0.0
 30
0.0
  9
$PUCSORGLEFT
 10
0.0
 20
0.0
 30
0.0
  9
$PUCSORGRIGHT
 10
0.0
 20
0.0
 30
0.0
  9
$PUCSORGFRONT
 10
0.0
 20
0.0
 30
0.0
  9
$PUCSORGBACK
 10
0.0
 20
0.0
 30
0.0
  9
$USERI1
 70
               0
  9
$USERI2
 70
               0
  9
$USERI3
 70
               0
  9
$USERI4
 70
               0
  9
$USERI5
 70
               0
  9
$USERR1
 40
0.0
  9
$USERR2
 40
0.0
  9
$USERR3
 40
0.0
  9
$USERR4
 40
0.0
  9
$USERR5
 40
0.0
  9
$WORLDVIEW
 70
               1
  9
$SHADEDGE
 70
               3
  9
$SHADEDIF
 70
              70
  9
$TILEMODE
 70
               1
  9
$MAXACTVP
 70
              64
  9
$PINSBASE
 10
0.0
 20
0.0
 30
0.0
  9
$PLIMCHECK
 70
               0
  9
$PEXTMIN
 10
1.0000000000000000E+20
 20
1.0000000000000000E+20
 30
1.0000000000000000E+20
  9
$PEXTMAX
 10
-1.0000000000000000E+20
 20
-1.0000000000000000E+20
 30
-1.0000000000000000E+20
  9
$PLIMMIN
 10
0.0
 20
0.0
  9
$PLIMMAX
 10
12.0
 20
9.0
  9
$UNITMODE
 70
               0
  9
$VISRETAIN
 70
               0
  9
$PLINEGEN
 70
               1
  9
$PSLTSCALE
 70
               0
  9
$TREEDEPTH
 70
            3020
  9
$CMLSTYLE
  2
Standard
  9
$CMLJUST
 70
               0
  9
$CMLSCALE
 40
1.0
  9
$PROXYGRAPHICS
 70
               0
  9
$MEASUREMENT
 70
               1
  9
$CELWEIGHT
370
               0
  9
$ENDCAPS
280
               0
  9
$JOINSTYLE
280
               0
  9
$LWDISPLAY
290
               1
  9
$INSUNITS
 70
               4
  9
$HYPERLINKBASE
  1

  9
$STYLESHEET
  1

  9
$XEDIT
290
               1
  9
$CEPSNTYPE
380
               0
  9
$PSTYLEMODE
290
               1
  9
$FINGERPRINTGUID
  2

  9
$VERSIONGUID
  2

  9
$EXTNAMES
290
               1
  9
$PSVPSCALE
 40
0.0
  0
ENDSEC
  0
SECTION
  2
CLASSES
  0
CLASS
  1
LWPOLYLINE
  2
AcDbPolyline
  3
AutoCAD 2000
 90
        0
280
               0
281
               1
  0
CLASS
  1
IMAGE
  2
AcDbRasterImage
  3
ISM
 90
      127
280
               0
281
               1
  0
CLASS
  1
OLE2FRAME
  2
AcDbOle2Frame
  3
AutoCAD 2000
 90
        0
280
               0
281
               1
  0
CLASS
  1
HATCH
  2
AcDbHatch
  3
AutoCAD 2000
 90
        0
280
               0
281
               1
  0
CLASS
  1
DICTIONARYVAR
  2
AcDbDictionaryVar
  3
AutoCAD 2000
 90
        0
280
               0
281
               0
  0
CLASS
  1
RASTERVARIABLES
  2
AcDbRasterVariables
  3
ISM
 90
        0
280
               0
281
               0
  0
CLASS
  1
IMAGEDEF
  2
AcDbRasterImageDef
  3
ISM
 90
        0
280
               0
281
               0
  0
CLASS
  1
IMAGEDEF_REACTOR
  2
AcDbRasterImageDefReactor
  3
ISM
 90
        1
280
               0
281
               0
  0
CLASS
  1
IDBUFFER
  2
AcDbIdBuffer
  3
AutoCAD 2000
 90
        0
280
               0
281
               0
  0
CLASS
  1
SPATIAL_FILTER
  2
AcDbSpatialFilter
  3
AutoCAD 2000
 90
        0
280
               0
281
               0
  0
CLASS
  1
XRECORD
  2
AcDbXrecord
  3
AutoCAD 2000
 90
        0
280
               0
281
               0
  0
CLASS
  1
SORTENTSTABLE
  2
AcDbSortentsTable
  3
AutoCAD 2000
 90
        0
280
               0
281
               0
  0
CLASS
  1
LAYER_INDEX
  2
AcDbLayerIndex
  3
AutoCAD 2000
 90
        0
280
               0
281
               0
  0
CLASS
  1
SPATIAL_INDEX
  2
AcDbSpatialIndex
  3
AutoCAD 2000
 90
        0
280
               0
281
               0
  0
CLASS
  1
OBJECT_PTR
  2
CAseDLPNTableRecord
  3
"ASE-LPNTableRecord"
 90
        1
280
               0
281
               0
  0
CLASS
  1
LAYOUT
  2
AcDbLayout
  3
AutoCAD 2000
 90
        0
280
               0
281
               0
  0
CLASS
  1
PLOTSETTINGS
  2
AcDbPlotSettings
  3
AutoCAD 2000
 90
        0
280
               0
281
               0
  0
CLASS
  1
ACDBDICTIONARYWDFLT
  2
AcDbDictionaryWithDefault
  3
AutoCAD 2000
 90
        0
280
               0
281
               0
  0
CLASS
  1
ACDBPLACEHOLDER
  2
AcDbPlaceHolder
  3
AutoCAD 2000
 90
        0
280
               0
281
               0
  0
ENDSEC
  0
SECTION
  2
TABLES
  0
TABLE
  2
VPORT
  5
7
100
AcDbSymbolTable
 70
               1
  0
VPORT
  5
15
100
AcDbSymbolTableRecord
100
AcDbViewportTableRecord
  2
*ACTIVE
 70
               0
 10
0.0
 20
0.0
 11
1.0
 21
1.0
 12
0.0
 22
-12.764114914906713
 13
0.0
 23
0.0
 14
1.0
 24
1.0
 15
0.0
 25
0.0
 16
0.0
 26
0.0
 36
1.0
 17
0.0
 27
0.0
 37
0.0
 40
2837.5228151124124
 41
0.688564
 42
50.0
 43
0.0
 44
0.0
 50
0.0
 51
0.0
 71
               0
 72
            2000
 73
               1
 74
               1
 75
               0
 76
               0
 77
               0
 78
               0
281
               0
 65
               0
110
0.0
120
0.0
130
0.0
111
1.0
121
0.0
131
0.0
112
0.0
122
1.0
132
0.0
345
0
346
0
 79
               0
146
0.0
  0
ENDTAB
  0
TABLE
  2
LTYPE
  5
4
100
AcDbSymbolTable
 70
              17
  0
LTYPE
  5
11
100
AcDbSymbolTableRecord
100
AcDbLinetypeTableRecord
  2
ByBlock
 70
              64
  3

 72
              65
 73
               0
 40
0.0
  0
LTYPE
  5
12
100
AcDbSymbolTableRecord
100
AcDbLinetypeTableRecord
  2
ByLayer
 70
              64
  3

 72
              65
 73
               0
 40
0.0
  0
LTYPE
  5
13
100
AcDbSymbolTableRecord
100
AcDbLinetypeTableRecord
  2
Continuous
 70
              64
  3
Solid line
 72
              65
 73
               0
 40
0.0
  0
LTYPE
  5
3A
100
AcDbSymbolTableRecord
100
AcDbLinetypeTableRecord
  2
STYLE_01
 70
               0
  3

 72
              65
 73
               4
 40
4.9999999999999991
 49
3.1249999999999991
 74
               0
 49
-0.625
 74
               0
 49
0.625
 74
               0
 49
-0.625
 74
               0
  0
LTYPE
  5
3B
100
AcDbSymbolTableRecord
100
AcDbLinetypeTableRecord
  2
STYLE_02
 70
               0
  3

 72
              65
 73
               2
 40
0.6944250000000001
 49
0.48607
 74
               0
 49
-0.2083550000000001
 74
               0
  0
LTYPE
  5
3C
100
AcDbSymbolTableRecord
100
AcDbLinetypeTableRecord
  2
STYLE_03
 70
               0
  3

 72
              65
 73
               2
 40
1.25
 49
1.0416400000000001
 74
               0
 49
-0.2083599999999999
 74
               0
  0
LTYPE
  5
3D
100
AcDbSymbolTableRecord
100
AcDbLinetypeTableRecord
  2
STYLE_04
 70
               0
  3

 72
              65
 73
               2
 40
1.5277099999999999
 49
1.3194249999999998
 74
               0
 49
-0.208285
 74
               0
  0
LTYPE
  5
3E
100
AcDbSymbolTableRecord
100
AcDbLinetypeTableRecord
  2
STYLE_05
 70
               0
  3

 72
              65
 73
               2
 40
0.20828
 49
0.069425
 74
               0
 49
-0.138855
 74
               0
  0
LTYPE
  5
3F
100
AcDbSymbolTableRecord
100
AcDbLinetypeTableRecord
  2
STYLE_06
 70
               0
  3

 72
              65
 73
               4
 40
1.0416400000000001
 49
0.625
 74
               0
 49
-0.20828
 74
               0
 49
0.06943
 74
               0
 49
-0.13893
 74
               0
  0
LTYPE
  5
40
100
AcDbSymbolTableRecord
100
AcDbLinetypeTableRecord
  2
STYLE_07
 70
               0
  3

 72
              65
 73
               6
 40
1.875
 49
0.625
 74
               0
 49
-0.20828
 74
               0
 49
0.6250000000000001
 74
               0
 49
-0.2083599999999999
 74
               0
 49
0.06943
 74
               0
 49
-0.1389299999999999
 74
               0
  0
LTYPE
  5
41
100
AcDbSymbolTableRecord
100
AcDbLinetypeTableRecord
  2
STYLE_08
 70
               0
  3

 72
              65
 73
               6
 40
1.25
 49
0.625
 74
               0
 49
-0.20828
 74
               0
 49
0.06943
 74
               0
 49
-0.13893
 74
               0
 49
0.0694299999999999
 74
               0
 49
-0.13893
 74
               0
  0
LTYPE
  5
42
100
AcDbSymbolTableRecord
100
AcDbLinetypeTableRecord
  2
STYLE_09
 70
               0
  3

 72
              65
 73
               4
 40
5.0
 49
3.75
 74
               0
 49
-0.2777849999999998
 74
               0
 49
0.6944300000000003
 74
               0
 49
-0.2777849999999998
 74
               0
  0
LTYPE
  5
43
100
AcDbSymbolTableRecord
100
AcDbLinetypeTableRecord
  2
STYLE_10
 70
               0
  3

 72
              65
 73
               6
 40
5.9375
 49
3.75
 74
               0
 49
-0.2777849999999998
 74
               0
 49
0.6944300000000003
 74
               0
 49
-0.2777849999999998
 74
               0
 49
0.625
 74
               0
 49
-0.3125
 74
               0
  0
LTYPE
  5
44
100
AcDbSymbolTableRecord
100
AcDbLinetypeTableRecord
  2
STYLE_11
 70
               0
  3

 72
              65
 73
               2
 40
0.0694444881889764
 49
0.0347222440944882
 74
               0
 49
-0.0347222440944882
 74
               0
  0
LTYPE
  5
45
100
AcDbSymbolTableRecord
100
AcDbLinetypeTableRecord
  2
STYLE_12
 70
               0
  3

 72
              65
 73
               2
 40
0.3937007874015748
 49
0.1968503937007874
 74
               0
 49
-0.1968503937007874
 74
               0
  0
LTYPE
  5
46
100
AcDbSymbolTableRecord
100
AcDbLinetypeTableRecord
  2
STYLE_13
 70
               0
  3

 72
              65
 73
               2
 40
0.5905511811023622
 49
0.2952755905511811
 74
               0
 49
-0.2952755905511811
 74
               0
  0
LTYPE
  5
47
100
AcDbSymbolTableRecord
100
AcDbLinetypeTableRecord
  2
STYLE_14
 70
               0
  3

 72
              65
 73
               2
 40
1.9685039370078738
 49
0.9842519685039369
 74
               0
 49
-0.9842519685039369
 74
               0
  0
ENDTAB
  0
TABLE
  2
LAYER
  5
2
100
AcDbSymbolTable
 70
               5
  0
LAYER
  5
14
100
AcDbSymbolTableRecord
100
AcDbLayerTableRecord
  2
0
 70
               0
 62
               7
  6
Continuous
290
               1
370
              -3
390
1D
  0
LAYER
  5
48
100
AcDbSymbolTableRecord
100
AcDbLayerTableRecord
  2
Defpoints
 70
               0
 62
               7
  6
Continuous
290
               0
370
              -3
390
1D
  0
LAYER
  5
49
100
AcDbSymbolTableRecord
100
AcDbLayerTableRecord
  2
template
 70
               0
 62
               7
  6
Continuous
290
               1
370
              -3
390
1D
  0
LAYER
  5
4A
100
AcDbSymbolTableRecord
100
AcDbLayerTableRecord
  2
notes
 70
               0
 62
               7
  6
Continuous
290
               1
370
              -3
390
1D
  0
LAYER
  5
4B
100
AcDbSymbolTableRecord
100
AcDbLayerTableRecord
  2
PLT70-0102
 70
               0
 62
               7
  6
Continuous
290
               1
370
              -3
390
1D
  0
ENDTAB
  0
TABLE
  2
STYLE
  5
3
100
AcDbSymbolTable
 70
               2
  0
STYLE
  5
17
100
AcDbSymbolTableRecord
100
AcDbTextStyleTableRecord
  2
Standard
 70
               0
 40
0.0
 41
1.0
 50
0.0
 71
               0
 42
0.0
  3
txt
  4
BIGFONT.SHX
  0
STYLE
  5
39
100
AcDbSymbolTableRecord
100
AcDbTextStyleTableRecord
  2
ＭＳ ゴシック
 70
               0
 40
0.0
 41
1.0
 50
0.0
 71
               0
 42
0.0
  3

  4
ＭＳ ゴシック
1001
ACAD
1000
ＭＳ ゴシック
1071
        0
  0
ENDTAB
  0
TABLE
  2
VIEW
  5
5
100
AcDbSymbolTable
 70
               0
  0
ENDTAB
  0
TABLE
  2
UCS
  5
6
100
AcDbSymbolTable
 70
               0
  0
ENDTAB
  0
TABLE
  2
APPID
  5
8
100
AcDbSymbolTable
 70
               1
  0
APPID
  5
16
100
AcDbSymbolTableRecord
100
AcDbRegAppTableRecord
  2
ACAD
 70
               0
  0
ENDTAB
  0
TABLE
  2
DIMSTYLE
  5
9
100
AcDbSymbolTable
 70
               3
100
AcDbDimStyleTable
 71
               0
  0
DIMSTYLE
105
18
100
AcDbSymbolTableRecord
100
AcDbDimStyleTableRecord
  2
Standard
 70
               0
  3

  4

 40
1.0
 41
0.18
 42
0.0625
 43
0.38
 44
0.18
 45
0.0
 46
0.0
 47
0.0
 48
0.0
 71
               0
 72
               0
 73
               1
 74
               1
 75
               0
 76
               0
 77
               0
 78
               0
 79
               0
140
0.18
141
0.09
142
0.0
143
25.399999999999999
144
1.0
145
0.0
146
1.0
147
0.09
148
0.0
170
               0
171
               2
172
               0
173
               0
174
               0
175
               0
176
               0
177
               0
178
               0
179
               0
271
               4
272
               4
273
               2
274
               2
275
               0
276
               0
277
               2
278
              46
279
               0
280
               0
281
               0
282
               0
283
               1
284
               0
285
               0
286
               0
288
               0
289
               3
340
17
341
0
342
0
343
0
344
0
371
              -2
372
              -2
  0
DIMSTYLE
105
54
100
AcDbSymbolTableRecord
100
AcDbDimStyleTableRecord
  2
tfrom線あり
 70
               0
  3
<>
  4
[]
 40
1.0
 41
3.999755859375
 42
24.999999999999996
 43
0.9999999999999999
 44
0.0
 45
0.0
 46
0.0
 47
0.0
 48
0.0
 71
               0
 72
               0
 73
               0
 74
               0
 75
               0
 76
               0
 77
               1
 78
              11
 79
               0
140
24.432617187500004
141
0.0
142
0.0
143
1.0
144
1.0
145
0.0
146
1.0
147
0.4999999999999999
148
0.0
170
               0
171
               1
172
               0
173
               0
174
               1
175
               0
176
               0
177
               0
178
               0
179
               2
271
               1
272
               1
273
               2
274
               2
275
               0
276
               2
277
               2
278
              46
279
               0
280
               0
281
               0
282
               0
283
               1
284
              11
285
              11
286
              11
288
               0
289
               0
340
39
341
4C
342
4C
343
0
344
0
371
              -2
372
              -2
  0
DIMSTYLE
105
59
100
AcDbSymbolTableRecord
100
AcDbDimStyleTableRecord
  2
JIS
 70
               0
  3
<>
  4
[]
 40
1.0
 41
31.75
 42
0.0
 43
6.9999999999999396
 44
19.999999999996199
 45
0.0
 46
0.0
 47
0.0
 48
0.0
 71
               0
 72
               0
 73
               0
 74
               0
 75
               0
 76
               0
 77
               1
 78
              11
 79
               0
140
24.432617187500004
141
0.0
142
0.0
143
1.0
144
1.0
145
0.0
146
1.0
147
1.00000000000108
148
0.0
170
               0
171
               1
172
               0
173
               0
174
               1
175
               0
176
               0
177
               0
178
               0
179
               2
271
               1
272
               1
273
               2
274
               2
275
               0
276
               2
277
               2
278
              46
279
               0
280
               0
281
               0
282
               0
283
               1
284
              11
285
              11
286
              11
288
               0
289
               0
340
39
341
55
342
55
343
0
344
0
371
              -2
372
              -2
  0
ENDTAB
  0
TABLE
  2
BLOCK_RECORD
  5
1
100
AcDbSymbolTable
 70
              24
  0
BLOCK_RECORD
  5
A
100
AcDbSymbolTableRecord
100
AcDbBlockTableRecord
  2
*MODEL_SPACE
340
20
  0
BLOCK_RECORD
  5
B
100
AcDbSymbolTableRecord
100
AcDbBlockTableRecord
  2
*PAPER_SPACE
340
21
  0
BLOCK_RECORD
  5
4C
100
AcDbSymbolTableRecord
100
AcDbBlockTableRecord
  2
_DOT
340
0
  0
BLOCK_RECORD
  5
55
100
AcDbSymbolTableRecord
100
AcDbBlockTableRecord
  2
VW_FILLEDARROW
340
0
  0
BLOCK_RECORD
  5
23
100
AcDbSymbolTableRecord
100
AcDbBlockTableRecord
  2
グループ
340
0
102
{BLKREFS
331
179
102
}
  0
BLOCK_RECORD
  5
24
100
AcDbSymbolTableRecord
100
AcDbBlockTableRecord
  2
*D3
340
0
  0
BLOCK_RECORD
  5
25
100
AcDbSymbolTableRecord
100
AcDbBlockTableRecord
  2
*D4
340
0
  0
BLOCK_RECORD
  5
26
100
AcDbSymbolTableRecord
100
AcDbBlockTableRecord
  2
*D5
340
0
  0
BLOCK_RECORD
  5
27
100
AcDbSymbolTableRecord
100
AcDbBlockTableRecord
  2
*D6
340
0
  0
BLOCK_RECORD
  5
28
100
AcDbSymbolTableRecord
100
AcDbBlockTableRecord
  2
*D7
340
0
  0
BLOCK_RECORD
  5
29
100
AcDbSymbolTableRecord
100
AcDbBlockTableRecord
  2
*D8
340
0
  0
BLOCK_RECORD
  5
2A
100
AcDbSymbolTableRecord
100
AcDbBlockTableRecord
  2
*D9
340
0
  0
BLOCK_RECORD
  5
2B
100
AcDbSymbolTableRecord
100
AcDbBlockTableRecord
  2
*D10
340
0
  0
BLOCK_RECORD
  5
2C
100
AcDbSymbolTableRecord
100
AcDbBlockTableRecord
  2
*D11
340
0
  0
BLOCK_RECORD
  5
2D
100
AcDbSymbolTableRecord
100
AcDbBlockTableRecord
  2
*D12
340
0
  0
BLOCK_RECORD
  5
2E
100
AcDbSymbolTableRecord
100
AcDbBlockTableRecord
  2
*D13
340
0
  0
BLOCK_RECORD
  5
2F
100
AcDbSymbolTableRecord
100
AcDbBlockTableRecord
  2
*D14
340
0
  0
BLOCK_RECORD
  5
30
100
AcDbSymbolTableRecord
100
AcDbBlockTableRecord
  2
*D15
340
0
  0
BLOCK_RECORD
  5
31
100
AcDbSymbolTableRecord
100
AcDbBlockTableRecord
  2
*D16
340
0
  0
BLOCK_RECORD
  5
32
100
AcDbSymbolTableRecord
100
AcDbBlockTableRecord
  2
*D17
340
0
  0
BLOCK_RECORD
  5
33
100
AcDbSymbolTableRecord
100
AcDbBlockTableRecord
  2
*D18
340
0
  0
BLOCK_RECORD
  5
34
100
AcDbSymbolTableRecord
100
AcDbBlockTableRecord
  2
*D19
340
0
  0
BLOCK_RECORD
  5
35
100
AcDbSymbolTableRecord
100
AcDbBlockTableRecord
  2
*D20
340
0
  0
BLOCK_RECORD
  5
36
100
AcDbSymbolTableRecord
100
AcDbBlockTableRecord
  2
*D21
340
0
  0
BLOCK_RECORD
  5
37
100
AcDbSymbolTableRecord
100
AcDbBlockTableRecord
  2
*D22
340
0
  0
BLOCK_RECORD
  5
38
100
AcDbSymbolTableRecord
100
AcDbBlockTableRecord
  2
*D23
340
0
  0
ENDTAB
  0
ENDSEC
  0
SECTION
  2
BLOCKS
  0
BLOCK
  5
D
100
AcDbEntity
  8
0
390
0
100
AcDbBlockBegin
  2
*MODEL_SPACE
 70
               0
 10
0.0
 20
0.0
 30
0.0
  3
*MODEL_SPACE
  1

  0
ENDBLK
  5
E
100
AcDbEntity
  8
0
390
0
100
AcDbBlockEnd
  0
BLOCK
  5
F
100
AcDbEntity
 67
               1
  8
0
390
0
100
AcDbBlockBegin
  2
*PAPER_SPACE
 70
               0
 10
0.0
 20
0.0
 30
0.0
  3
*PAPER_SPACE
  1

  0
ENDBLK
  5
10
100
AcDbEntity
 67
               1
  8
0
390
0
100
AcDbBlockEnd
  0
BLOCK
  5
4D
100
AcDbEntity
  8
0
390
0
100
AcDbBlockBegin
  2
_DOT
 70
               0
 10
0.0
 20
0.0
 30
0.0
  3
_DOT
  1

  0
POLYLINE
  5
4E
100
AcDbEntity
  8
0
370
              -2
390
0
  6
ByBlock
 62
               0
100
AcDb2dPolyline
 66
               1
 10
0.0
 20
0.0
 30
0.0
 70
               1
 40
0.5
 41
0.5
  0
VERTEX
  5
4F
100
AcDbEntity
  8
0
370
              -2
390
0
  6
ByBlock
 62
               0
100
AcDbVertex
100
AcDb2dVertex
 10
-0.25
 20
0.0
 30
0.0
 42
1.0
  0
VERTEX
  5
50
100
AcDbEntity
  8
0
370
              -2
390
0
  6
ByBlock
 62
               0
100
AcDbVertex
100
AcDb2dVertex
 10
0.25
 20
0.0
 30
0.0
 42
1.0
  0
SEQEND
  5
51
100
AcDbEntity
  8
0
390
0
  0
LINE
  5
52
100
AcDbEntity
  8
0
370
              -2
390
0
  6
ByBlock
 62
               0
100
AcDbLine
 10
-0.5
 20
0.0
 30
0.0
 11
-1.0
 21
0.0
 31
0.0
  0
ENDBLK
  5
53
100
AcDbEntity
  8
0
390
0
100
AcDbBlockEnd
  0
BLOCK
  5
56
100
AcDbEntity
  8
0
370
              -2
390
0
  6
ByBlock
 62
               0
100
AcDbBlockBegin
  2
VW_FILLEDARROW
 70
               0
 10
0.0
 20
0.0
 30
0.0
  3
VW_FILLEDARROW
  1

  0
SOLID
  5
57
100
AcDbEntity
  8
0
370
              -2
390
0
 62
               0
100
AcDbTrace
 10
0.0
 20
0.0
 30
0.0
 11
-0.9921874999999999
 21
-0.2658558393652545
 31
0.0
 12
-0.9921874999999999
 22
0.2658558393652548
 32
0.0
 13
-0.9921874999999999
 23
0.2658558393652548
 33
0.0
  0
ENDBLK
  5
58
100
AcDbEntity
  8
0
390
0
100
AcDbBlockEnd
  0
BLOCK
  5
5A
100
AcDbEntity
  8
template
390
0
100
AcDbBlockBegin
  2
グループ
 70
               0
 10
0.0
 20
0.0
 30
0.0
  3
グループ
  1

  0
LWPOLYLINE
  5
5B
100
AcDbEntity
  8
0
370
              15
390
0
  6
Continuous
 62
               7
100
AcDbPolyline
 90
        8
 70
             129
 10
768.82965243543003
 20
-1535.5576155520469
 10
768.82965243543003
 20
-1541.5550042456227
 10
759.32845551742673
 20
-1541.5550042456227
 10
759.32845551742673
 20
-1566.0059675091316
 10
750.97307825564394
 20
-1566.0059675091316
 10
750.97307825564394
 20
-1541.5550042456227
 10
741.64012130933452
 20
-1541.5550042456227
 10
741.64012130933452
 20
-1535.5576155520469
  0
LWPOLYLINE
  5
5C
100
AcDbEntity
  8
0
370
              15
390
0
  6
Continuous
 62
               7
100
AcDbPolyline
 90
      101
 70
             128
 10
781.55794426598698
 20
-1536.2858640449833
 10
781.57329429477318
 20
-1536.2815032882979
 42
-0.0222221607813184
 10
781.86329887144302
 20
-1536.2128788230536
 10
781.87909263543747
 20
-1536.2098753999564
 42
-0.0146883565585544
 10
782.14179534066079
 20
-1536.1678722130073
 42
-0.0127458844183936
 10
782.40643430781336
 20
-1536.1403352449347
 10
782.46888938612665
 20
-1536.1354418223466
 42
-0.0198099018567964
 10
782.85973849560128
 20
-1536.1203566649501
 10
782.91154996504724
 20
-1536.1204104406152
 42
-0.0147617382764404
 10
783.40617342601956
 20
-1536.1355304658598
 10
783.47886488089387
 20
-1536.1399030727475
 42
-0.0162624549004976
 10
783.869018510361
 20
-1536.1761359480199
 10
783.99055090162608
 20
-1536.1914225070173
 42
-0.0080020874663873
 10
784.13612993271181
 20
-1536.2121053542849
 10
784.17444940331723
 20
-1536.2181766320975
 42
-0.0053821929661981
 10
784.2429335086216
 20
-1536.2297841559175
 10
783.516527809423
 20
-1538.4107126116314
 42
0.0108667757392516
 10
783.44921073929186
 20
-1538.3975254964114
 10
783.41174271610271
 20
-1538.3910277538171
 42
0.0170663203306221
 10
783.26852592918897
 20
-1538.3711981565255
 10
783.20065059650415
 20
-1538.3641509859378
 42
0.0220162375273477
 10
782.92027118865064
 20
-1538.3474686251677
 10
782.8424156215965
 20
-1538.3462692579012
 42
0.0282606915784782
 10
782.50677929801884
 20
-1538.3600725348701
 10
782.46286602424777
 20
-1538.3643725248737
 42
0.0169677213686902
 10
782.21694152928762
 20
-1538.396909574426
 42
0.019057626987189
 10
781.97403356670566
 20
-1538.4470564465328
 10
781.96777437859669
 20
-1538.4485994206416
 42
0.0213685642838045
 10
781.71738989412233
 20
-1538.521799705745
 10
781.71189999920273
 20
-1538.5236627018053
 42
0.0237595297591436
 10
781.45840511430526
 20
-1538.6233472237004
 10
781.45330304027436
 20
-1538.625638999179
 42
0.0261857468814581
 10
781.20113226404328
 20
-1538.7551753365542
 10
781.19070607496099
 20
-1538.7612408110199
 42
0.0272553062017607
 10
780.95427629971891
 20
-1538.9166130169665
 10
780.91951328620928
 20
-1538.9422741650587
 42
0.0325996893172771
 10
780.76935794255792
 20
-1539.06902203803
 10
780.74564851343155
 20
-1539.091840066546
 42
0.0138050960634833
 10
780.65376535722476
 20
-1539.1852897280946
 42
0.0125280103795859
 10
780.56692282440008
 20
-1539.2834530546841
 10
780.54324237948288
 20
-1539.3116115528819
 42
0.020521802473527
 10
780.41814230396847
 20
-1539.4734048671121
 10
780.39567596348206
 20
-1539.5050645969379
 42
0.0163110129586176
 10
780.23996558422732
 20
-1539.7403950320133
 10
780.23724168817978
 20
-1539.7448187939933
 42
0.013189734189941
 10
780.09044116727614
 20
-1539.9979508863535
 10
780.08874107190741
 20
-1540.0010691254934
 42
0.010789557606377
 10
779.95096436969629
 20
-1540.2672843351295
 10
779.95023148017162
 20
-1540.2687785677751
 42
0.0091371507215327
 10
779.82175153152139
 20
-1540.5433037655362
 10
779.79200590011283
 20
-1540.6100102726937
 42
0.0135418326352719
 10
779.62029196103936
 20
-1541.0249480579671
 10
779.58668715260876
 20
-1541.1128142002387
 42
0.0092834542414685
 10
779.41545809268609
 20
-1541.586712698549
 10
779.38984096497165
 20
-1541.661953768333
 42
0.0054261043577936
 10
779.28220281667541
 20
-1541.9897177414073
 10
779.26467683047531
 20
-1542.0451059037091
 42
0.0008225090816087
 10
779.19600677866799
 20
-1542.2633746617867
 10
778.21131764673453
 20
-1545.2882659550432
 10
781.4439414868084
 20
-1545.2882659550432
 10
780.93974905695495
 20
-1547.1927442533956
 10
777.68369277497163
 20
-1547.1927442533956
 10
771.85454374261781
 20
-1566.0059673194005
 10
770.0294461323075
 20
-1566.0059673194005
 10
775.86412416780843
 20
-1547.1927442533956
 10
773.45900779876808
 20
-1547.1927442533956
 10
773.96320022862153
 20
-1545.2882659550432
 10
776.39174903957155
 20
-1545.2882659550432
 10
777.25190395776019
 20
-1542.6518529543443
 42
-0.0005863560649434
 10
777.28863863591528
 20
-1542.5350265342065
 10
777.36472646962409
 20
-1542.2940342346672
 42
-0.0087522378928239
 10
777.56419461308133
 20
-1541.6987581475196
 10
777.65645888849576
 20
-1541.4386179790035
 42
-0.0077400953829137
 10
777.91439254762554
 20
-1540.7456133014593
 10
777.93015751920427
 20
-1540.7051824180737
 42
-0.0082369946329153
 10
778.17724198981637
 20
-1540.1011033518776
 42
-0.0085725238365404
 10
778.44448808581501
 20
-1539.5056773125996
 10
778.54611768682651
 20
-1539.289256210606
 42
-0.0168109410596177
 10
778.83306211555669
 20
-1538.7280486845011
 10
778.95890550603224
 20
-1538.5010846514735
 42
-0.0007817726847287
 10
779.01318985607236
 20
-1538.4035404064725
 10
779.0133181620929
 20
-1538.4033106977304
 42
-0.0036626142155381
 10
779.06820602611083
 20
-1538.3067128177677
 42
-0.0080221150663249
 10
779.12533028151722
 20
-1538.2114335830154
 10
779.15603023287872
 20
-1538.1620426338927
 42
-0.0202139325573475
 10
779.28368597268559
 20
-1537.974061033211
 10
779.33775343787306
 20
-1537.9009821689704
 42
-0.0249323791802359
 10
779.59691623158756
 20
-1537.584936926821
 10
779.62105604571923
 20
-1537.5583226539034
 42
-0.0242132121533237
 10
779.96073678726282
 20
-1537.2184391676979
 10
780.00864836001256
 20
-1537.1749300315128
 42
-0.0251017527859311
 10
780.29263006065253
 20
-1536.9419372857487
 10
780.29407553746967
 20
-1536.9408680281674
 42
-0.0130868069039176
 10
780.5923361874236
 20
-1536.7320875596272
 10
780.59389800656618
 20
-1536.7310541193522
 42
-0.029032952638955
 10
780.90500914795962
 20
-1536.550228617723
 10
780.93485470995017
 20
-1536.5351262348811
 42
-0.0160250190043952
 10
781.20075912371044
 20
-1536.4111101246699
 42
-0.0267600374782652
 10
781.47603520117843
 20
-1536.3103618041216
 10
781.5027711207
 20
-1536.3021692452958
 42
-0.0049981587669956
 10
781.55794426598698
 20
-1536.2858640449833
 42
-0.0049981587669956
  0
LWPOLYLINE
  5
5D
100
AcDbEntity
  8
0
370
              15
390
0
  6
Continuous
 62
               7
100
AcDbPolyline
 90
      118
 70
             128
 10
801.37231183043389
 20
-1545.3622492828706
 10
803.24743375493335
 20
-1545.3622492828706
 10
802.40939484933347
 20
-1548.0438158092707
 42
-0.0010587229223416
 10
802.44085066490186
 20
-1548.0069112759193
 10
802.4990447555374
 20
-1547.9389290197396
 42
-0.007187474041013
 10
802.64941997363303
 20
-1547.7682883277132
 10
802.79114274689766
 20
-1547.6120521863972
 42
-0.0148118053512025
 10
803.24127203961336
 20
-1547.1444383403814
 10
803.32849437450284
 20
-1547.05904101954
 42
-0.0086273358695107
 10
803.66404317552065
 20
-1546.7416653855144
 10
803.70787689174244
 20
-1546.7016157411849
 42
-0.0103138323112031
 10
803.96590059398
 20
-1546.475452603843
 10
804.01167500030363
 20
-1546.4369705565857
 42
-0.0060206748566348
 10
804.1845230644193
 20
-1546.2951759058283
 10
804.1865541952991
 20
-1546.2935502002019
 42
-0.0067069027289702
 10
804.3588470099678
 20
-1546.159399566402
 10
804.36139577590529
 20
-1546.1574693965181
 42
-0.0076184352040433
 10
804.53230104176509
 20
-1546.0320945212829
 42
-0.0089652861664278
 10
804.70726200451543
 20
-1545.9124612609401
 10
804.74361372464739
 20
-1545.8885500474657
 42
-0.0156916245936806
 10
804.93957322180472
 20
-1545.768287560993
 42
-0.0023299011057512
 10
805.13983526578374
 20
-1545.6551096214525
 10
805.15521939816438
 20
-1545.6465096263876
 42
-0.010766934148867
 10
805.38945622326287
 20
-1545.5221094930394
 10
805.41172102434052
 20
-1545.5108927430881
 42
-0.0078058045896566
 10
805.69531114228926
 20
-1545.3735312874514
 10
805.7052182300024
 20
-1545.3689221595812
 42
-0.0181829330472679
 10
806.01552763461541
 20
-1545.2380584184866
 10
806.06958307718446
 20
-1545.2175432985421
 42
-0.0208411536026686
 10
806.41866804463507
 20
-1545.1014528360488
 10
806.43302414476113
 20
-1545.0973343910957
 42
-0.0222799817136069
 10
806.76174393867973
 20
-1545.018692824955
 10
806.77063290191688
 20
-1545.0169808143698
 42
-0.0215509523883007
 10
807.08710387019664
 20
-1544.9700651258358
 10
807.12958583124737
 20
-1544.9656275990449
 42
-0.0182545924874089
 10
807.36369461055074
 20
-1544.949783773654
 10
807.40309562689481
 20
-1544.9485592285748
 42
-0.0072962856533116
 10
807.55901850658779
 20
-1544.9459899000526
 10
807.58811817716673
 20
-1544.9459350646489
 42
-0.0059227516305622
 10
807.68586767630472
 20
-1544.9469087764392
 10
807.71510989380829
 20
-1544.9475465430432
 42
-0.0011833111896635
 10
807.75436117750905
 20
-1544.9484955473526
 10
806.95897458190188
 20
-1547.4872294924517
 42
0.0143932051536968
 10
806.93257319954898
 20
-1547.4770305224054
 10
806.92530122713401
 20
-1547.4744593035489
 42
0.0234388603505555
 10
806.88347036120319
 20
-1547.4618400678341
 10
806.87478869828919
 20
-1547.4596591058287
 42
0.0199162742982426
 10
806.81449986421012
 20
-1547.4470423704938
 10
806.79368592640299
 20
-1547.4435451710651
 42
0.0293643550669071
 10
806.69061106764275
 20
-1547.4323951254119
 10
806.66592588692356
 20
-1547.4311835083934
 42
0.0214606686878495
 10
806.51278497096826
 20
-1547.4302449479762
 10
806.50341306015309
 20
-1547.4305898595203
 42
0.0167564054182338
 10
806.3318928690461
 20
-1547.4426669018881
 10
806.32343307628571
 20
-1547.4435482423155
 42
0.0137677553244518
 10
806.1360797630191
 20
-1547.468297550859
 10
806.12872802351308
 20
-1547.4694754708269
 42
0.0118497261478322
 10
805.92823025941584
 20
-1547.5064928210149
 10
805.92208025216451
 20
-1547.5077796837361
 42
0.0106421143885882
 10
805.71119936488242
 20
-1547.5566120593101
 10
805.70629055649044
 20
-1547.557859401996
 42
0.0099746379703788
 10
805.48783208732789
 20
-1547.6180339303107
 10
805.42628404715765
 20
-1547.6363158089414
 42
0.0191613675862597
 10
805.09029958463987
 20
-1547.7502931892293
 10
805.00223981189663
 20
-1547.7839800995525
 42
0.0205274080145702
 10
804.61693303999596
 20
-1547.949808507379
 10
804.55928375801591
 20
-1547.9774764719505
 42
0.0181256912191744
 10
804.301006817347
 20
-1548.113160290929
 10
804.2480514340366
 20
-1548.1434779041417
 42
0.0140709242403386
 10
804.10309649940473
 20
-1548.2319725775783
 10
804.07684763077441
 20
-1548.2490293963015
 42
0.008666788442055
 10
803.9879214692437
 20
-1548.3090320641766
 42
0.0036408192039124
 10
803.90048823117604
 20
-1548.3712129219937
 10
803.86526135674171
 20
-1548.3966538678817
 42
0.0052260781275588
 10
803.70903265935885
 20
-1548.5119862545096
 10
803.69282580309095
 20
-1548.524214365134
 42
0.0050024435890409
 10
803.50682246002918
 20
-1548.6674969333985
 10
803.49150430351699
 20
-1548.679542955842
 42
0.0136138710279974
 10
803.28106303518541
 20
-1548.8545094607609
 10
803.24739515939814
 20
-1548.8840884334695
 42
0.017281518691007
 10
802.98299161773662
 20
-1549.1330851060918
 10
802.98042927189294
 20
-1549.13567092324
 42
0.018940385798848
 10
802.72984747331611
 20
-1549.4084761880417
 10
802.69721597977968
 20
-1549.4468201195396
 42
0.01850441995057
 10
802.50525954079785
 20
-1549.6900687006646
 42
0.0088565243903058
 10
802.32679943416917
 20
-1549.943585120815
 10
802.31762145452092
 20
-1549.9571265005745
 42
0.0157195347229292
 10
802.13440084818694
 20
-1550.2466487098902
 10
802.08831790625402
 20
-1550.3248009069146
 42
0.0095451879783117
 10
801.92323235611832
 20
-1550.6173955492677
 10
801.91208443718915
 20
-1550.638066221399
 42
0.0100351706258537
 10
801.78004068802943
 20
-1550.8951217818903
 42
0.0086935915427417
 10
801.65770953623587
 20
-1551.1569549272938
 10
801.65438879482087
 20
-1551.1643972502666
 42
0.0072580174868075
 10
801.53404234287484
 20
-1551.4449892418525
 10
801.53078070956963
 20
-1551.4529092678677
 42
0.0060005122616715
 10
801.41158004122167
 20
-1551.7525189384862
 10
801.4083690628853
 20
-1551.7608804663773
 42
0.0049017786977383
 10
801.28946890402642
 20
-1552.0798094469858
 10
801.28630309763741
 20
-1552.0885623842123
 42
0.0039415167599959
 10
801.16686681958424
 20
-1552.4271044466152
 10
801.16373571692861
 20
-1552.4362076475015
 42
0.003103583875819
 10
801.04293093124477
 20
-1552.7946475092469
 10
801.03982088670512
 20
-1552.8040681306497
 42
0.0025070747149608
 10
800.91691953540044
 20
-1553.1827153475604
 10
800.8796256389644
 20
-1553.2996070128468
 42
0.0029081910283761
 10
800.68760734114892
 20
-1553.9137706711531
 10
800.64680417263651
 20
-1554.0469939134143
 42
0.0009266453734662
 10
800.37838679833305
 20
-1554.9292183733007
 10
800.35749932568922
 20
-1554.998330252547
 42
-0.0005809993666547
 10
800.08016264509001
 20
-1555.9121383592128
 10
800.01388084682594
 20
-1556.1296232913435
 42
-0.0012018708166011
 10
799.8668965373879
 20
-1556.6077859558932
 10
799.81457668587984
 20
-1556.7765450965737
 42
-0.0002691059613355
 10
799.77100720465376
 20
-1556.9168127171008
 10
796.93805130636451
 20
-1566.0059673194005
 10
795.12006241438598
 20
-1566.0059673194005
 10
801.37231183043389
 20
-1545.3622492828706
  0
SPLINE
  5
5E
100
AcDbEntity
  8
0
370
              15
390
0
  6
Continuous
 62
               7
100
AcDbSpline
210
0.0
220
0.0
230
1.0
 70
              13
 71
               2
 72
             782
 73
             779
 74
               0
 42
0.000001
 43
0.000001
 40
0.0
 40
0.0
 40
0.0
 40
1.0
 40
1.0
 40
2.0
 40
2.0
 40
3.0
 40
3.0
 40
4.0
 40
4.0
 40
5.0
 40
5.0
 40
6.0
 40
6.0
 40
7.0
 40
7.0
 40
8.0
 40
8.0
 40
9.0
 40
9.0
 40
10.0
 40
10.0
 40
11.0
 40
11.0
 40
12.0
 40
12.0
 40
13.0
 40
13.0
 40
14.0
 40
14.0
 40
15.0
 40
15.0
 40
16.0
 40
16.0
 40
17.0
 40
17.0
 40
18.0
 40
18.0
 40
19.0
 40
19.0
 40
20.0
 40
20.0
 40
21.0
 40
21.0
 40
22.0
 40
22.0
 40
23.0
 40
23.0
 40
24.0
 40
24.0
 40
25.0
 40
25.0
 40
26.0
 40
26.0
 40
27.0
 40
27.0
 40
28.0
 40
28.0
 40
29.0
 40
29.0
 40
30.0
 40
30.0
 40
31.0
 40
31.0
 40
32.0
 40
32.0
 40
33.0
 40
33.0
 40
34.0
 40
34.0
 40
35.0
 40
35.0
 40
36.0
 40
36.0
 40
37.0
 40
37.0
 40
38.0
 40
38.0
 40
39.0
 40
39.0
 40
40.0
 40
40.0
 40
41.0
 40
41.0
 40
42.0
 40
42.0
 40
43.0
 40
43.0
 40
44.0
 40
44.0
 40
45.0
 40
45.0
 40
46.0
 40
46.0
 40
47.0
 40
47.0
 40
48.0
 40
48.0
 40
49.0
 40
49.0
 40
50.0
 40
50.0
 40
51.0
 40
51.0
 40
52.0
 40
52.0
 40
53.0
 40
53.0
 40
54.0
 40
54.0
 40
55.0
 40
55.0
 40
56.0
 40
56.0
 40
57.0
 40
57.0
 40
58.0
 40
58.0
 40
59.0
 40
59.0
 40
60.0
 40
60.0
 40
61.0
 40
61.0
 40
62.0
 40
62.0
 40
63.0
 40
63.0
 40
64.0
 40
64.0
 40
65.0
 40
65.0
 40
66.0
 40
66.0
 40
67.0
 40
67.0
 40
68.0
 40
68.0
 40
69.0
 40
69.0
 40
70.0
 40
70.0
 40
71.0
 40
71.0
 40
72.0
 40
72.0
 40
73.0
 40
73.0
 40
74.0
 40
74.0
 40
75.0
 40
75.0
 40
76.0
 40
76.0
 40
77.0
 40
77.0
 40
78.0
 40
78.0
 40
79.0
 40
79.0
 40
80.0
 40
80.0
 40
81.0
 40
81.0
 40
82.0
 40
82.0
 40
83.0
 40
83.0
 40
84.0
 40
84.0
 40
85.0
 40
85.0
 40
86.0
 40
86.0
 40
87.0
 40
87.0
 40
88.0
 40
88.0
 40
89.0
 40
89.0
 40
90.0
 40
90.0
 40
91.0
 40
91.0
 40
92.0
 40
92.0
 40
93.0
 40
93.0
 40
94.0
 40
94.0
 40
95.0
 40
95.0
 40
96.0
 40
96.0
 40
97.0
 40
97.0
 40
98.0
 40
98.0
 40
99.0
 40
99.0
 40
100.0
 40
100.0
 40
101.0
 40
101.0
 40
102.0
 40
102.0
 40
103.0
 40
103.0
 40
104.0
 40
104.0
 40
105.0
 40
105.0
 40
106.0
 40
106.0
 40
107.0
 40
107.0
 40
108.0
 40
108.0
 40
109.0
 40
109.0
 40
110.0
 40
110.0
 40
111.0
 40
111.0
 40
112.0
 40
112.0
 40
113.0
 40
113.0
 40
114.0
 40
114.0
 40
115.0
 40
115.0
 40
116.0
 40
116.0
 40
117.0
 40
117.0
 40
118.0
 40
118.0
 40
119.0
 40
119.0
 40
120.0
 40
120.0
 40
121.0
 40
121.0
 40
122.0
 40
122.0
 40
123.0
 40
123.0
 40
124.0
 40
124.0
 40
125.0
 40
125.0
 40
126.0
 40
126.0
 40
127.0
 40
127.0
 40
128.0
 40
128.0
 40
129.0
 40
129.0
 40
130.0
 40
130.0
 40
131.0
 40
131.0
 40
132.0
 40
132.0
 40
133.0
 40
133.0
 40
134.0
 40
134.0
 40
135.0
 40
135.0
 40
136.0
 40
136.0
 40
137.0
 40
137.0
 40
138.0
 40
138.0
 40
139.0
 40
139.0
 40
140.0
 40
140.0
 40
141.0
 40
141.0
 40
142.0
 40
142.0
 40
143.0
 40
143.0
 40
144.0
 40
144.0
 40
145.0
 40
145.0
 40
146.0
 40
146.0
 40
147.0
 40
147.0
 40
148.0
 40
148.0
 40
149.0
 40
149.0
 40
150.0
 40
150.0
 40
151.0
 40
151.0
 40
152.0
 40
152.0
 40
153.0
 40
153.0
 40
154.0
 40
154.0
 40
155.0
 40
155.0
 40
156.0
 40
156.0
 40
157.0
 40
157.0
 40
158.0
 40
158.0
 40
159.0
 40
159.0
 40
160.0
 40
160.0
 40
161.0
 40
161.0
 40
162.0
 40
162.0
 40
163.0
 40
163.0
 40
164.0
 40
164.0
 40
165.0
 40
165.0
 40
166.0
 40
166.0
 40
167.0
 40
167.0
 40
168.0
 40
168.0
 40
169.0
 40
169.0
 40
170.0
 40
170.0
 40
171.0
 40
171.0
 40
172.0
 40
172.0
 40
173.0
 40
173.0
 40
174.0
 40
174.0
 40
175.0
 40
175.0
 40
176.0
 40
176.0
 40
177.0
 40
177.0
 40
178.0
 40
178.0
 40
179.0
 40
179.0
 40
180.0
 40
180.0
 40
181.0
 40
181.0
 40
182.0
 40
182.0
 40
183.0
 40
183.0
 40
184.0
 40
184.0
 40
185.0
 40
185.0
 40
186.0
 40
186.0
 40
187.0
 40
187.0
 40
188.0
 40
188.0
 40
189.0
 40
189.0
 40
190.0
 40
190.0
 40
191.0
 40
191.0
 40
192.0
 40
192.0
 40
193.0
 40
193.0
 40
194.0
 40
194.0
 40
195.0
 40
195.0
 40
196.0
 40
196.0
 40
197.0
 40
197.0
 40
198.0
 40
198.0
 40
199.0
 40
199.0
 40
200.0
 40
200.0
 40
201.0
 40
201.0
 40
202.0
 40
202.0
 40
203.0
 40
203.0
 40
204.0
 40
204.0
 40
205.0
 40
205.0
 40
206.0
 40
206.0
 40
207.0
 40
207.0
 40
208.0
 40
208.0
 40
209.0
 40
209.0
 40
210.0
 40
210.0
 40
211.0
 40
211.0
 40
212.0
 40
212.0
 40
213.0
 40
213.0
 40
214.0
 40
214.0
 40
215.0
 40
215.0
 40
216.0
 40
216.0
 40
217.0
 40
217.0
 40
218.0
 40
218.0
 40
219.0
 40
219.0
 40
220.0
 40
220.0
 40
221.0
 40
221.0
 40
222.0
 40
222.0
 40
223.0
 40
223.0
 40
224.0
 40
224.0
 40
225.0
 40
225.0
 40
226.0
 40
226.0
 40
227.0
 40
227.0
 40
228.0
 40
228.0
 40
229.0
 40
229.0
 40
230.0
 40
230.0
 40
231.0
 40
231.0
 40
232.0
 40
232.0
 40
233.0
 40
233.0
 40
234.0
 40
234.0
 40
235.0
 40
235.0
 40
236.0
 40
236.0
 40
237.0
 40
237.0
 40
238.0
 40
238.0
 40
239.0
 40
239.0
 40
240.0
 40
240.0
 40
241.0
 40
241.0
 40
242.0
 40
242.0
 40
243.0
 40
243.0
 40
244.0
 40
244.0
 40
245.0
 40
245.0
 40
246.0
 40
246.0
 40
247.0
 40
247.0
 40
248.0
 40
248.0
 40
249.0
 40
249.0
 40
250.0
 40
250.0
 40
251.0
 40
251.0
 40
252.0
 40
252.0
 40
253.0
 40
253.0
 40
254.0
 40
254.0
 40
255.0
 40
255.0
 40
256.0
 40
256.0
 40
257.0
 40
257.0
 40
258.0
 40
258.0
 40
259.0
 40
259.0
 40
260.0
 40
260.0
 40
261.0
 40
261.0
 40
262.0
 40
262.0
 40
263.0
 40
263.0
 40
264.0
 40
264.0
 40
265.0
 40
265.0
 40
266.0
 40
266.0
 40
267.0
 40
267.0
 40
268.0
 40
268.0
 40
269.0
 40
269.0
 40
270.0
 40
270.0
 40
271.0
 40
271.0
 40
272.0
 40
272.0
 40
273.0
 40
273.0
 40
274.0
 40
274.0
 40
275.0
 40
275.0
 40
276.0
 40
276.0
 40
277.0
 40
277.0
 40
278.0
 40
278.0
 40
279.0
 40
279.0
 40
280.0
 40
280.0
 40
281.0
 40
281.0
 40
282.0
 40
282.0
 40
283.0
 40
283.0
 40
284.0
 40
284.0
 40
285.0
 40
285.0
 40
286.0
 40
286.0
 40
287.0
 40
287.0
 40
288.0
 40
288.0
 40
289.0
 40
289.0
 40
290.0
 40
290.0
 40
291.0
 40
291.0
 40
292.0
 40
292.0
 40
293.0
 40
293.0
 40
294.0
 40
294.0
 40
295.0
 40
295.0
 40
296.0
 40
296.0
 40
297.0
 40
297.0
 40
298.0
 40
298.0
 40
299.0
 40
299.0
 40
300.0
 40
300.0
 40
301.0
 40
301.0
 40
302.0
 40
302.0
 40
303.0
 40
303.0
 40
304.0
 40
304.0
 40
305.0
 40
305.0
 40
306.0
 40
306.0
 40
307.0
 40
307.0
 40
308.0
 40
308.0
 40
309.0
 40
309.0
 40
310.0
 40
310.0
 40
311.0
 40
311.0
 40
312.0
 40
312.0
 40
313.0
 40
313.0
 40
314.0
 40
314.0
 40
315.0
 40
315.0
 40
316.0
 40
316.0
 40
317.0
 40
317.0
 40
318.0
 40
318.0
 40
319.0
 40
319.0
 40
320.0
 40
320.0
 40
321.0
 40
321.0
 40
322.0
 40
322.0
 40
323.0
 40
323.0
 40
324.0
 40
324.0
 40
325.0
 40
325.0
 40
326.0
 40
326.0
 40
327.0
 40
327.0
 40
328.0
 40
328.0
 40
329.0
 40
329.0
 40
330.0
 40
330.0
 40
331.0
 40
331.0
 40
332.0
 40
332.0
 40
333.0
 40
333.0
 40
334.0
 40
334.0
 40
335.0
 40
335.0
 40
336.0
 40
336.0
 40
337.0
 40
337.0
 40
338.0
 40
338.0
 40
339.0
 40
339.0
 40
340.0
 40
340.0
 40
341.0
 40
341.0
 40
342.0
 40
342.0
 40
343.0
 40
343.0
 40
344.0
 40
344.0
 40
345.0
 40
345.0
 40
346.0
 40
346.0
 40
347.0
 40
347.0
 40
348.0
 40
348.0
 40
349.0
 40
349.0
 40
350.0
 40
350.0
 40
351.0
 40
351.0
 40
352.0
 40
352.0
 40
353.0
 40
353.0
 40
354.0
 40
354.0
 40
355.0
 40
355.0
 40
356.0
 40
356.0
 40
357.0
 40
357.0
 40
358.0
 40
358.0
 40
359.0
 40
359.0
 40
360.0
 40
360.0
 40
361.0
 40
361.0
 40
362.0
 40
362.0
 40
363.0
 40
363.0
 40
364.0
 40
364.0
 40
365.0
 40
365.0
 40
366.0
 40
366.0
 40
367.0
 40
367.0
 40
368.0
 40
368.0
 40
369.0
 40
369.0
 40
370.0
 40
370.0
 40
371.0
 40
371.0
 40
372.0
 40
372.0
 40
373.0
 40
373.0
 40
374.0
 40
374.0
 40
375.0
 40
375.0
 40
376.0
 40
376.0
 40
377.0
 40
377.0
 40
378.0
 40
378.0
 40
379.0
 40
379.0
 40
380.0
 40
380.0
 40
381.0
 40
381.0
 40
382.0
 40
382.0
 40
383.0
 40
383.0
 40
384.0
 40
384.0
 40
385.0
 40
385.0
 40
386.0
 40
386.0
 40
387.0
 40
387.0
 40
388.0
 40
388.0
 40
389.0
 40
389.0
 40
389.0
 10
811.70101628116652
 20
-1545.3513229195082
 30
0.0
 41
1.0
 10
812.519440389887
 20
-1545.3513229195082
 30
0.0
 41
1.0
 10
813.33786449860747
 20
-1545.3513229195082
 30
0.0
 41
1.0
 10
812.92411076309077
 20
-1546.6939491837579
 30
0.0
 41
1.0
 10
812.51035702757395
 20
-1548.0365754480076
 30
0.0
 41
1.0
 10
812.52869652275297
 20
-1548.0078746750787
 30
0.0
 41
0.9999957264350134
 10
812.54720351957792
 20
-1547.9792816249374
 30
0.0
 41
1.0
 10
812.57763284371254
 20
-1547.9322687465656
 30
0.0
 41
1.0
 10
812.60806216784727
 20
-1547.8852558681938
 30
0.0
 41
1.0
 10
812.6874278129518
 20
-1547.7626370612927
 30
0.0
 41
0.9995394069081204
 10
812.77408620450251
 20
-1547.6450589995525
 30
0.0
 41
1.0
 10
812.80984306676419
 20
-1547.5965441069563
 30
0.0
 41
1.0
 10
812.84559992902575
 20
-1547.5480292143602
 30
0.0
 41
1.0
 10
812.97932659684432
 20
-1547.3665889392335
 30
0.0
 41
0.9994460617143609
 10
813.12482707813092
 20
-1547.1944465415854
 30
0.0
 41
1.0
 10
813.12921525910633
 20
-1547.1892548612022
 30
0.0
 41
1.0
 10
813.13360344008174
 20
-1547.1840631808193
 30
0.0
 41
1.0
 10
813.27032755941934
 20
-1547.0223041439351
 30
0.0
 41
0.9994359394934048
 10
813.41760178977029
 20
-1546.8700879427711
 30
0.0
 41
1.0
 10
813.41998514372676
 20
-1546.8676246123946
 30
0.0
 41
1.0
 10
813.42236849768335
 20
-1546.8651612820181
 30
0.0
 41
1.0
 10
813.56487602012362
 20
-1546.7178717416048
 30
0.0
 41
0.9995293688568121
 10
813.71614770110386
 20
-1546.5795985294421
 30
0.0
 41
1.0
 10
813.73544146036829
 20
-1546.5619626437901
 30
0.0
 41
1.0
 10
813.75473521963283
 20
-1546.5443267581379
 30
0.0
 41
1.0
 10
813.86741938208934
 20
-1546.4413253172756
 30
0.0
 41
0.9997087614803145
 10
813.98494227104106
 20
-1546.3438810364803
 30
0.0
 41
1.0
 10
814.00410834422382
 20
-1546.3279894579664
 30
0.0
 41
1.0
 10
814.02327441740658
 20
-1546.3120978794525
 30
0.0
 41
1.0
 10
814.10246516000359
 20
-1546.2464367556763
 30
0.0
 41
0.9999595338697963
 10
814.18282443085127
 20
-1546.1822110250273
 30
0.0
 41
1.0
 10
814.26318370170941
 20
-1546.1179852943701
 30
0.0
 41
0.9999749417509055
 10
814.34444423604953
 20
-1546.0549037404264
 30
0.0
 41
1.0
 10
814.3654303822259
 20
-1546.0386124531137
 30
0.0
 41
1.0
 10
814.38641652840238
 20
-1546.0223211658013
 30
0.0
 41
1.0
 10
814.47098441369144
 20
-1545.9566721559706
 30
0.0
 41
0.9999792037115373
 10
814.5563920134523
 20
-1545.8921193743336
 30
0.0
 41
1.0
 10
814.57721683940031
 20
-1545.8763795520481
 30
0.0
 41
1.0
 10
814.59804166534821
 20
-1545.8606397297629
 30
0.0
 41
1.0
 10
814.64179961328023
 20
-1545.8275665926458
 30
0.0
 41
0.9999993374132351
 10
814.68548129936494
 20
-1545.7943927972658
 30
0.0
 41
1.0
 10
814.72916298551627
 20
-1545.7612190018358
 30
0.0
 41
0.9999160953814693
 10
814.77368939644407
 20
-1545.7291879366317
 30
0.0
 41
1.0
 10
814.80651128385534
 20
-1545.7055767810527
 30
0.0
 41
1.0
 10
814.83933317126673
 20
-1545.6819656254738
 30
0.0
 41
1.0
 10
814.94950335702322
 20
-1545.6027122491068
 30
0.0
 41
0.9980964527230277
 10
815.06859235052218
 20
-1545.537624776252
 30
0.0
 41
1.0
 10
815.10562495745194
 20
-1545.517384796658
 30
0.0
 41
1.0
 10
815.14265756438169
 20
-1545.4971448170638
 30
0.0
 41
1.0
 10
815.32198457765446
 20
-1545.3991345663626
 30
0.0
 41
0.9984572810572364
 10
815.51107314401406
 20
-1545.3216123050161
 30
0.0
 41
1.0
 10
815.51471941341003
 20
-1545.320117412678
 30
0.0
 41
1.0
 10
815.51836568280601
 20
-1545.3186225203401
 30
0.0
 41
1.0
 10
815.70016171037321
 20
-1545.2440900436695
 30
0.0
 41
0.9987838528033888
 10
815.88841436893222
 20
-1545.1878244035038
 30
0.0
 41
1.0
 10
815.89265231813033
 20
-1545.1865577498138
 30
0.0
 41
1.0
 10
815.89689026732856
 20
-1545.1852910961236
 30
0.0
 41
1.0
 10
816.07666702749123
 20
-1545.131558763338
 30
0.0
 41
0.9990652816207484
 10
816.26041295920731
 20
-1545.093555083796
 30
0.0
 41
1.0
 10
816.26560136024
 20
-1545.0924819806892
 30
0.0
 41
1.0
 10
816.27078976127268
 20
-1545.0914088775824
 30
0.0
 41
1.0
 10
816.44415889092465
 20
-1545.0555514042537
 30
0.0
 41
0.9992909934270943
 10
816.61973465738151
 20
-1545.0328409717874
 30
0.0
 41
1.0
 10
816.79531042383974
 20
-1545.0101305393209
 30
0.0
 41
0.9994553539448366
 10
816.97200185693248
 20
-1544.9990512351146
 30
0.0
 41
1.0
 10
817.00743626472797
 20
-1544.996829347067
 30
0.0
 41
1.0
 10
817.04287067252346
 20
-1544.9946074590191
 30
0.0
 41
1.0
 10
817.2090964390934
 20
-1544.9841843966074
 30
0.0
 41
0.9990928098293105
 10
817.37560623099625
 20
-1544.9879440378418
 30
0.0
 41
1.0
 10
817.41416806627205
 20
-1544.988814729375
 30
0.0
 41
1.0
 10
817.45272990154785
 20
-1544.989685420908
 30
0.0
 41
1.0
 10
817.54211602290286
 20
-1544.9917036790766
 30
0.0
 41
0.9998382089205112
 10
817.63137170568507
 20
-1544.9969358056046
 30
0.0
 41
1.0
 10
817.63180161190292
 20
-1544.9969610065068
 30
0.0
 41
1.0
 10
817.63223151812076
 20
-1544.9969862074088
 30
0.0
 41
1.0
 10
817.72062738846921
 20
-1545.0021679321324
 30
0.0
 41
0.9997558016758834
 10
817.80870796567206
 20
-1545.0112504474992
 30
0.0
 41
1.0
 10
817.80918410409822
 20
-1545.0112995449813
 30
0.0
 41
1.0
 10
817.80966024252439
 20
-1545.0113486424636
 30
0.0
 41
1.0
 10
817.89678854286944
 20
-1545.020332962865
 30
0.0
 41
0.999656514418137
 10
817.98332639621503
 20
-1545.0338702695544
 30
0.0
 41
1.0
 10
817.98379232159186
 20
-1545.0339431552857
 30
0.0
 41
1.0
 10
817.98425824696869
 20
-1545.0340160410169
 30
0.0
 41
1.0
 10
818.06986424955676
 20
-1545.0474075762436
 30
0.0
 41
0.9995321806867231
 10
818.15449132988499
 20
-1545.0660080646728
 30
0.0
 41
1.0
 10
818.1548805244563
 20
-1545.0660936071386
 30
0.0
 41
1.0
 10
818.15526971902773
 20
-1545.0661791496043
 30
0.0
 41
1.0
 10
818.23911841021243
 20
-1545.084608553102
 30
0.0
 41
0.9993819199219213
 10
818.32146494440917
 20
-1545.1088839363629
 30
0.0
 41
1.0
 10
818.32170337790751
 20
-1545.1089542254722
 30
0.0
 41
1.0
 10
818.32194181140585
 20
-1545.1090245145817
 30
0.0
 41
1.0
 10
818.40381147860523
 20
-1545.1331593196232
 30
0.0
 41
0.9992088568504854
 10
818.48350399759363
 20
-1545.163724555418
 30
0.0
 41
1.0
 10
818.56318498847281
 20
-1545.1942841561511
 30
0.0
 41
0.9990226101773445
 10
818.63985565837982
 20
-1545.2317615877655
 30
0.0
 41
1.0
 10
818.71651480017829
 20
-1545.2692333843193
 30
0.0
 41
0.9988424273972548
 10
818.78921842738941
 20
-1545.3138981595716
 30
0.0
 41
1.0
 10
818.78948613576915
 20
-1545.3140626236441
 30
0.0
 41
1.0
 10
818.78975384414889
 20
-1545.3142270877165
 30
0.0
 41
1.0
 10
818.86299288812029
 20
-1545.359220791114
 30
0.0
 41
0.9986928844490778
 10
818.93125575483054
 20
-1545.4114565253942
 30
0.0
 41
1.0
 10
818.9318370470528
 20
-1545.4119013386216
 30
0.0
 41
1.0
 10
818.93241833927505
 20
-1545.4123461518493
 30
0.0
 41
1.0
 10
819.00184379043037
 20
-1545.4654715125848
 30
0.0
 41
0.9986007262278043
 10
819.06526996019693
 20
-1545.5256322822781
 30
0.0
 41
1.0
 10
819.06616437565424
 20
-1545.5264806501132
 30
0.0
 41
1.0
 10
819.06705879111155
 20
-1545.5273290179484
 30
0.0
 41
1.0
 10
819.1322737917925
 20
-1545.589186523312
 30
0.0
 41
0.9985581491380846
 10
819.190481403494
 20
-1545.6576790135834
 30
0.0
 41
1.0
 10
819.19973985708998
 20
-1545.6685733712852
 30
0.0
 41
1.0
 10
819.20899831068596
 20
-1545.6794677289872
 30
0.0
 41
1.0
 10
819.28572282957919
 20
-1545.7697489346622
 30
0.0
 41
0.9970460233520685
 10
819.34771473073909
 20
-1545.8707160188444
 30
0.0
 41
1.0
 10
819.36218409581863
 20
-1545.8942824779256
 30
0.0
 41
1.0
 10
819.37665346089818
 20
-1545.917848937007
 30
0.0
 41
1.0
 10
819.41639016091062
 20
-1545.9825686610393
 30
0.0
 41
0.9988468816637101
 10
819.44973653166153
 20
-1546.0508011134657
 30
0.0
 41
1.0
 10
819.45677255415262
 20
-1546.0651980346022
 30
0.0
 41
1.0
 10
819.4638085766436
 20
-1546.0795949557387
 30
0.0
 41
1.0
 10
819.48308290241118
 20
-1546.1190335658891
 30
0.0
 41
0.99984311899971
 10
819.50094822990809
 20
-1546.1591301203341
 30
0.0
 41
1.0
 10
819.51881355741193
 20
-1546.1992266747952
 30
0.0
 41
0.99999899901186
 10
819.53679228084638
 20
-1546.2392725124064
 30
0.0
 41
1.0
 10
819.54296459242994
 20
-1546.2530207291952
 30
0.0
 41
1.0
 10
819.54913690401349
 20
-1546.266768945984
 30
0.0
 41
1.0
 10
819.57946025062381
 20
-1546.3343112171929
 30
0.0
 41
0.9998790356319877
 10
819.60766813076202
 20
-1546.4027639691303
 30
0.0
 41
1.0
 10
819.61450331204605
 20
-1546.419351070557
 30
0.0
 41
1.0
 10
819.62133849332997
 20
-1546.4359381719837
 30
0.0
 41
1.0
 10
819.6448961557096
 20
-1546.4931061268669
 30
0.0
 41
0.999822757456066
 10
819.66628490410017
 20
-1546.5511204351478
 30
0.0
 41
1.0
 10
819.68767365248993
 20
-1546.6091347434267
 30
0.0
 41
0.9996797971041684
 10
819.70609993744836
 20
-1546.6681568625424
 30
0.0
 41
1.0
 10
819.71000374017399
 20
-1546.6806613207118
 30
0.0
 41
1.0
 10
819.71390754289973
 20
-1546.6931657788814
 30
0.0
 41
1.0
 10
819.74014143330999
 20
-1546.777196814337
 30
0.0
 41
0.9979274938733869
 10
819.75536595678909
 20
-1546.863901172997
 30
0.0
 41
1.0
 10
819.75758964405065
 20
-1546.8765651738204
 30
0.0
 41
1.0
 10
819.75981333131222
 20
-1546.8892291746436
 30
0.0
 41
1.0
 10
819.77074327101013
 20
-1546.9514756819322
 30
0.0
 41
0.9994985982137782
 10
819.77771143618679
 20
-1547.0142891830724
 30
0.0
 41
1.0
 10
819.78467960136413
 20
-1547.0771026842197
 30
0.0
 41
0.9996372611202115
 10
819.78825546713199
 20
-1547.1402002629038
 30
0.0
 41
1.0
 10
819.78842404462102
 20
-1547.1431748799823
 30
0.0
 41
1.0
 10
819.78859262211017
 20
-1547.1461494970608
 30
0.0
 41
1.0
 10
819.79250564285667
 20
-1547.2151963099077
 30
0.0
 41
0.999773063073503
 10
819.79347395634454
 20
-1547.2843471339422
 30
0.0
 41
1.0
 10
819.79353106276267
 20
-1547.2884253130835
 30
0.0
 41
1.0
 10
819.79358816918079
 20
-1547.2925034922248
 30
0.0
 41
1.0
 10
819.79467069550492
 20
-1547.3698106745469
 30
0.0
 41
0.9998772614071032
 10
819.79333060877332
 20
-1547.4471138211081
 30
0.0
 41
1.0
 10
819.79324134557464
 20
-1547.4522629849425
 30
0.0
 41
1.0
 10
819.79315208237585
 20
-1547.4574121487769
 30
0.0
 41
1.0
 10
819.79163346924668
 20
-1547.5450136230122
 30
0.0
 41
0.9999415567328213
 10
819.78822115900027
 20
-1547.6325617846985
 30
0.0
 41
1.0
 10
819.7879798383251
 20
-1547.6387532444296
 30
0.0
 41
1.0
 10
819.78773851765004
 20
-1547.6449447041609
 30
0.0
 41
1.0
 10
819.78384356605295
 20
-1547.7448757853185
 30
0.0
 41
0.9999716810423172
 10
819.77844498293496
 20
-1547.844736923538
 30
0.0
 41
1.0
 10
819.77523218414581
 20
-1547.9041661732035
 30
0.0
 41
1.0
 10
819.77201938535654
 20
-1547.963595422869
 30
0.0
 41
1.0
 10
819.7639454762043
 20
-1548.1129438241423
 30
0.0
 41
0.9999819129912047
 10
819.75407568458809
 20
-1548.2621843018464
 30
0.0
 41
1.0
 10
819.74420589297154
 20
-1548.4114247795578
 30
0.0
 41
1.0
 10
819.74176657240764
 20
-1548.4486178254072
 30
0.0
 41
1.0
 10
819.76446480623349
 20
-1548.4098768280862
 30
0.0
 41
0.9999982128152993
 10
819.78730936499323
 20
-1548.3712219341207
 30
0.0
 41
1.0
 10
819.81421892487856
 20
-1548.325688720065
 30
0.0
 41
1.0
 10
819.84112848476377
 20
-1548.2801555060091
 30
0.0
 41
1.0
 10
819.91779216328871
 20
-1548.1504341839409
 30
0.0
 41
0.9998609190056418
 10
819.99873947615049
 20
-1548.0233418020114
 30
0.0
 41
1.0
 10
820.02838779763078
 20
-1547.9767920690565
 30
0.0
 41
1.0
 10
820.05803611911097
 20
-1547.9302423361019
 30
0.0
 41
1.0
 10
820.14030833935044
 20
-1547.801069766103
 30
0.0
 41
0.9999067609730609
 10
820.22607734881603
 20
-1547.6741920766594
 30
0.0
 41
1.0
 10
820.22848205201376
 20
-1547.6706348106095
 30
0.0
 41
1.0
 10
820.23088675521137
 20
-1547.6670775445593
 30
0.0
 41
1.0
 10
820.31184635827594
 20
-1547.5473143872237
 30
0.0
 41
0.9998784952151355
 10
820.3964999679614
 20
-1547.4301331705092
 30
0.0
 41
1.0
 10
820.48115357764141
 20
-1547.312951953802
 30
0.0
 41
0.999853296828129
 10
820.56977119845965
 20
-1547.1987390453378
 30
0.0
 41
1.0
 10
820.58973298745286
 20
-1547.1730117243146
 30
0.0
 41
1.0
 10
820.60969477644619
 20
-1547.1472844032917
 30
0.0
 41
1.0
 10
820.72817882620643
 20
-1546.9945787923214
 30
0.0
 41
0.9991551975795369
 10
820.85880327583004
 20
-1546.8521192302378
 30
0.0
 41
1.0
 10
820.86231289180864
 20
-1546.8482916286148
 30
0.0
 41
1.0
 10
820.86582250778724
 20
-1546.8444640269915
 30
0.0
 41
1.0
 10
820.98942772545217
 20
-1546.7096596681558
 30
0.0
 41
0.999741814418133
 10
821.11902986515406
 20
-1546.5806102575418
 30
0.0
 41
1.0
 10
821.24863200485606
 20
-1546.451560846928
 30
0.0
 41
0.9989238204633062
 10
821.38963455310716
 20
-1546.3350758848894
 30
0.0
 41
1.0
 10
821.43488223124405
 20
-1546.2976958932827
 30
0.0
 41
1.0
 10
821.48012990938105
 20
-1546.260315901676
 30
0.0
 41
1.0
 10
821.62036996660424
 20
-1546.1444608483835
 30
0.0
 41
0.9990825084096205
 10
821.77000989921021
 20
-1546.0410318505492
 30
0.0
 41
1.0
 10
821.78005526326706
 20
-1546.0340886374697
 30
0.0
 41
1.0
 10
821.79010062732391
 20
-1546.0271454243903
 30
0.0
 41
1.0
 10
821.91964983181549
 20
-1545.9376028527151
 30
0.0
 41
0.9998164899826769
 10
822.05253403519043
 20
-1545.8530886111998
 30
0.0
 41
1.0
 10
822.0643795957169
 20
-1545.8455548446736
 30
0.0
 41
1.0
 10
822.07622515624348
 20
-1545.8380210781477
 30
0.0
 41
1.0
 10
822.18541823856754
 20
-1545.7685743696829
 30
0.0
 41
0.9997473449131669
 10
822.29762219581607
 20
-1545.7041054118677
 30
0.0
 41
1.0
 10
822.40982615306689
 20
-1545.6396364540512
 30
0.0
 41
0.9999327861141204
 10
822.52349476383699
 20
-1545.5777864623662
 30
0.0
 41
1.0
 10
822.52404676639367
 20
-1545.5774861036894
 30
0.0
 41
1.0
 10
822.52459876895045
 20
-1545.5771857450122
 30
0.0
 41
1.0
 10
822.63937138483402
 20
-1545.5147350359732
 30
0.0
 41
0.9996956420483826
 10
822.75708471067458
 20
-1545.4580215689982
 30
0.0
 41
1.0
 10
822.78752511556672
 20
-1545.4433555922685
 30
0.0
 41
1.0
 10
822.81796552045876
 20
-1545.4286896155388
 30
0.0
 41
1.0
 10
822.92094262720468
 20
-1545.3790759570943
 30
0.0
 41
0.9998070570176892
 10
823.02578901614572
 20
-1545.3335453701934
 30
0.0
 41
1.0
 10
823.13063540508858
 20
-1545.2880147832916
 30
0.0
 41
0.999782743614747
 10
823.2372883417022
 20
-1545.2468936119783
 30
0.0
 41
1.0
 10
823.25651119133079
 20
-1545.239482038347
 30
0.0
 41
1.0
 10
823.27573404095938
 20
-1545.2320704647157
 30
0.0
 41
1.0
 10
823.42083267683108
 20
-1545.1761261461393
 30
0.0
 41
0.9988031841976411
 10
823.57070303943522
 20
-1545.1346260819716
 30
0.0
 41
1.0
 10
823.59562028779919
 20
-1545.1277263361644
 30
0.0
 41
1.0
 10
823.62053753616328
 20
-1545.1208265903574
 30
0.0
 41
1.0
 10
823.78780756181015
 20
-1545.0745084479506
 30
0.0
 41
0.9984748040550083
 10
823.95916447045931
 20
-1545.0469142156858
 30
0.0
 41
1.0
 10
823.96390360670785
 20
-1545.0461510551722
 30
0.0
 41
1.0
 10
823.96864274295638
 20
-1545.0453878946589
 30
0.0
 41
1.0
 10
824.1305213791079
 20
-1545.0193199834209
 30
0.0
 41
0.9984436495480189
 10
824.29429612283298
 20
-1545.0114420296022
 30
0.0
 41
1.0
 10
824.31599333096472
 20
-1545.0103983424026
 30
0.0
 41
1.0
 10
824.33769053909646
 20
-1545.009354655203
 30
0.0
 41
1.0
 10
824.45807086655816
 20
-1545.0035640757835
 30
0.0
 41
0.9987954789335318
 10
824.57843911146756
 20
-1545.0096006035258
 30
0.0
 41
1.0
 10
824.59840390396585
 20
-1545.0106018478646
 30
0.0
 41
1.0
 10
824.61836869646402
 20
-1545.0116030922034
 30
0.0
 41
1.0
 10
824.69880735638117
 20
-1545.0156371312685
 30
0.0
 41
0.9997941595877277
 10
824.77901613447182
 20
-1545.0229311971891
 30
0.0
 41
1.0
 10
824.85922491256406
 20
-1545.03022526311
 30
0.0
 41
0.9998589466239068
 10
824.93914345941687
 20
-1545.0402091175597
 30
0.0
 41
1.0
 10
824.9715496612273
 20
-1545.0442574744793
 30
0.0
 41
1.0
 10
825.00395586303773
 20
-1545.0483058313987
 30
0.0
 41
1.0
 10
825.14868681350777
 20
-1545.066386399687
 30
0.0
 41
0.9993495063248935
 10
825.29173805727203
 20
-1545.0948521094285
 30
0.0
 41
1.0
 10
825.32467175442821
 20
-1545.1014055726441
 30
0.0
 41
1.0
 10
825.35760545158428
 20
-1545.1079590358595
 30
0.0
 41
1.0
 10
825.46689927478667
 20
-1545.1297073699948
 30
0.0
 41
0.9996788715561392
 10
825.57495084673985
 20
-1545.1569651693569
 30
0.0
 41
1.0
 10
825.57701384927577
 20
-1545.1574855959291
 30
0.0
 41
1.0
 10
825.57907685181181
 20
-1545.1580060225012
 30
0.0
 41
1.0
 10
825.6830024186936
 20
-1545.184222968719
 30
0.0
 41
0.9995480654491803
 10
825.78516465392568
 20
-1545.2166379253445
 30
0.0
 41
1.0
 10
825.78685429605616
 20
-1545.2171740302588
 30
0.0
 41
1.0
 10
825.78854393818654
 20
-1545.2177101351731
 30
0.0
 41
1.0
 10
825.88732688915638
 20
-1545.2490528819692
 30
0.0
 41
0.9993867959456538
 10
825.98367404759767
 20
-1545.2872322512585
 30
0.0
 41
1.0
 10
825.98491699668284
 20
-1545.2877247931549
 30
0.0
 41
1.0
 10
825.98615994576801
 20
-1545.2882173350513
 30
0.0
 41
1.0
 10
826.0800212060409
 20
-1545.3254116205487
 30
0.0
 41
0.9992050256522114
 10
826.17062088107355
 20
-1545.369965519787
 30
0.0
 41
1.0
 10
826.17135556378616
 20
-1545.3703268122479
 30
0.0
 41
1.0
 10
826.17209024649878
 20
-1545.3706881047087
 30
0.0
 41
1.0
 10
826.26122055610688
 20
-1545.4145194190257
 30
0.0
 41
0.999022235074154
 10
826.34613061750065
 20
-1545.4660526867242
 30
0.0
 41
1.0
 10
826.34631450278357
 20
-1545.466164289629
 30
0.0
 41
1.0
 10
826.34649838806638
 20
-1545.466275892534
 30
0.0
 41
1.0
 10
826.43104067889396
 20
-1545.5175859544222
 30
0.0
 41
0.9988642743804869
 10
826.51031521351319
 20
-1545.5767101419476
 30
0.0
 41
1.0
 10
826.5895897481322
 20
-1545.635834329473
 30
0.0
 41
0.9987681233311417
 10
826.66261353240861
 20
-1545.7025250208737
 30
0.0
 41
1.0
 10
826.66294246037432
 20
-1545.7028254220877
 30
0.0
 41
1.0
 10
826.66327138834004
 20
-1545.7031258233019
 30
0.0
 41
1.0
 10
826.73695302854776
 20
-1545.7704173171312
 30
0.0
 41
0.9987496570898902
 10
826.80354683387509
 20
-1545.8447301312181
 30
0.0
 41
1.0
 10
826.80431900363544
 20
-1545.8455918045759
 30
0.0
 41
1.0
 10
826.80509117339579
 20
-1545.8464534779337
 30
0.0
 41
1.0
 10
826.87322931824394
 20
-1545.9224896387359
 30
0.0
 41
0.9988147669826472
 10
826.93365157246899
 20
-1546.0047906455786
 30
0.0
 41
1.0
 10
826.93477089854673
 20
-1546.0063152769312
 30
0.0
 41
1.0
 10
826.93589022462436
 20
-1546.0078399082836
 30
0.0
 41
1.0
 10
826.99855113100398
 20
-1546.0931901778299
 30
0.0
 41
0.9989452636216454
 10
827.0531180439657
 20
-1546.183928866988
 30
0.0
 41
1.0
 10
827.05446677005159
 20
-1546.1861716480146
 30
0.0
 41
1.0
 10
827.05581549613748
 20
-1546.1884144290411
 30
0.0
 41
1.0
 10
827.11307986126963
 20
-1546.2836386802503
 30
0.0
 41
0.9991046436070595
 10
827.16208907459179
 20
-1546.3833631132768
 30
0.0
 41
1.0
 10
827.16355293618176
 20
-1546.3863417933494
 30
0.0
 41
1.0
 10
827.16501679777184
 20
-1546.3893204734218
 30
0.0
 41
1.0
 10
827.21695373427315
 20
-1546.4950022665914
 30
0.0
 41
0.9992763831101186
 10
827.2607068628289
 20
-1546.6043263285487
 30
0.0
 41
1.0
 10
827.26218613249216
 20
-1546.6080225160822
 30
0.0
 41
1.0
 10
827.26366540215531
 20
-1546.6117187036155
 30
0.0
 41
1.0
 10
827.31037707003679
 20
-1546.7284351406381
 30
0.0
 41
0.9994163472883748
 10
827.34901010122644
 20
-1546.8480687291014
 30
0.0
 41
1.0
 10
827.3502482534733
 20
-1546.8519028728847
 30
0.0
 41
1.0
 10
827.35148640572015
 20
-1546.8557370166677
 30
0.0
 41
1.0
 10
827.39136996673756
 20
-1546.9792430781465
 30
0.0
 41
0.9997268055891432
 10
827.42543802264959
 20
-1547.1044781100973
 30
0.0
 41
1.0
 10
827.42636820291955
 20
-1547.1078974762072
 30
0.0
 41
1.0
 10
827.4272983831894
 20
-1547.1113168423174
 30
0.0
 41
1.0
 10
827.45950607856128
 20
-1547.2297131420466
 30
0.0
 41
0.9996701319000679
 10
827.485591695332
 20
-1547.3496070953115
 30
0.0
 41
1.0
 10
827.51167731210217
 20
-1547.4695010485723
 30
0.0
 41
0.999578545110884
 10
827.53076088944215
 20
-1547.5907068096058
 30
0.0
 41
1.0
 10
827.53498067161593
 20
-1547.6175079643713
 30
0.0
 41
1.0
 10
827.5392004537897
 20
-1547.6443091191366
 30
0.0
 41
1.0
 10
827.56577542972843
 20
-1547.8130950928398
 30
0.0
 41
0.9979925101216119
 10
827.57080101565464
 20
-1547.9838864209312
 30
0.0
 41
1.0
 10
827.57162582807928
 20
-1548.0119171444157
 30
0.0
 41
1.0
 10
827.57245064050403
 20
-1548.0399478679001
 30
0.0
 41
1.0
 10
827.57582660158096
 20
-1548.1546777490275
 30
0.0
 41
0.9995314902263437
 10
827.57217640944248
 20
-1548.269399232775
 30
0.0
 41
1.0
 10
827.56852621730388
 20
-1548.384120716526
 30
0.0
 41
0.9996245486944801
 10
827.55859712217318
 20
-1548.49846998765
 30
0.0
 41
1.0
 10
827.55843407417888
 20
-1548.5003477437856
 30
0.0
 41
1.0
 10
827.55827102618468
 20
-1548.5022254999212
 30
0.0
 41
1.0
 10
827.54801583506537
 20
-1548.6203302833158
 30
0.0
 41
0.9997286095001371
 10
827.53227051149406
 20
-1548.7378291922089
 30
0.0
 41
1.0
 10
827.5318770188436
 20
-1548.7407656169116
 30
0.0
 41
1.0
 10
827.53148352619314
 20
-1548.7437020416141
 30
0.0
 41
1.0
 10
827.51495121732046
 20
-1548.8670737999159
 30
0.0
 41
0.9998265533969103
 10
827.49383575858826
 20
-1548.9897442747013
 30
0.0
 41
1.0
 10
827.4931592164512
 20
-1548.9936746532085
 30
0.0
 41
1.0
 10
827.49248267431403
 20
-1548.9976050317159
 30
0.0
 41
1.0
 10
827.47001413130761
 20
-1549.128136263517
 30
0.0
 41
0.9999022530854977
 10
827.44390466669847
 20
-1549.2579882321518
 30
0.0
 41
1.0
 10
827.44292602553242
 20
-1549.2628553745421
 30
0.0
 41
1.0
 10
827.44194738436647
 20
-1549.2677225169325
 30
0.0
 41
1.0
 10
827.41388063742738
 20
-1549.407308770338
 30
0.0
 41
0.9999524761934096
 10
827.3830976685922
 20
-1549.546321263505
 30
0.0
 41
1.0
 10
827.38182156141613
 20
-1549.55208402281
 30
0.0
 41
1.0
 10
827.38054545424006
 20
-1549.5578467821151
 30
0.0
 41
1.0
 10
827.34721027104865
 20
-1549.7083847939084
 30
0.0
 41
0.9999813588719829
 10
827.31203927025115
 20
-1549.858504506572
 30
0.0
 41
1.0
 10
827.31048534479828
 20
-1549.8651370969783
 30
0.0
 41
1.0
 10
827.30893141934553
 20
-1549.8717696873848
 30
0.0
 41
1.0
 10
827.27065256763728
 20
-1550.0351545808821
 30
0.0
 41
0.9999955237647821
 10
827.23139668966462
 20
-1550.1983074844568
 30
0.0
 41
1.0
 10
827.21911505402591
 20
-1550.2493516749973
 30
0.0
 41
1.0
 10
827.2068334183873
 20
-1550.3003958655381
 30
0.0
 41
1.0
 10
827.1430142691346
 20
-1550.5656371502046
 30
0.0
 41
0.9999993604635399
 10
827.07859532196744
 20
-1550.8307334008857
 30
0.0
 41
1.0
 10
827.0738764864218
 20
-1550.8501523089208
 30
0.0
 41
1.0
 10
827.06915765087604
 20
-1550.8695712169556
 30
0.0
 41
1.0
 10
826.9953010326102
 20
-1551.1735052837344
 30
0.0
 41
0.9999659914726874
 10
826.91644143672022
 20
-1551.4761798303125
 30
0.0
 41
1.0
 10
826.91148874779469
 20
-1551.4951889674755
 30
0.0
 41
1.0
 10
826.90653605886905
 20
-1551.5141981046386
 30
0.0
 41
1.0
 10
826.81777108512233
 20
-1551.8548909255621
 30
0.0
 41
0.9999441976024164
 10
826.72182805215675
 20
-1552.1936323508687
 30
0.0
 41
1.0
 10
826.70512753373293
 20
-1552.2525960633902
 30
0.0
 41
1.0
 10
826.68842701530912
 20
-1552.311559775912
 30
0.0
 41
1.0
 10
826.55908294549431
 20
-1552.768228626267
 30
0.0
 41
0.9999625120730263
 10
826.42185017817064
 20
-1553.2225891602636
 30
0.0
 41
1.0
 10
826.38606023508896
 20
-1553.3410851868866
 30
0.0
 41
1.0
 10
826.35027029200728
 20
-1553.4595812135094
 30
0.0
 41
1.0
 10
826.27575008796566
 20
-1553.7063082916134
 30
0.0
 41
0.9999793386302351
 10
826.19806406482644
 20
-1553.9520569308547
 30
0.0
 41
1.0
 10
826.12037804168892
 20
-1554.1978055700908
 30
0.0
 41
1.0
 10
826.10959848281823
 20
-1554.2318234744655
 30
0.0
 41
1.0
 10
824.25922542954913
 20
-1560.1188953969331
 30
0.0
 41
1.0
 10
822.40885237627992
 20
-1566.0059673194005
 30
0.0
 41
1.0
 10
821.44759568625636
 20
-1566.0059673194005
 30
0.0
 41
1.0
 10
820.4863389962328
 20
-1566.0059673194005
 30
0.0
 41
1.0
 10
822.10528377491119
 20
-1560.8579388176111
 30
0.0
 41
1.0
 10
823.72422855358968
 20
-1555.7099103158216
 30
0.0
 41
1.0
 10
823.76939437676583
 20
-1555.5658790935461
 30
0.0
 41
1.0
 10
823.81456019994187
 20
-1555.4218478712705
 30
0.0
 41
1.0
 10
823.98486461730022
 20
-1554.8787568421221
 30
0.0
 41
0.9999911657922697
 10
824.1505974289812
 20
-1554.3342533107557
 30
0.0
 41
1.0
 10
824.18029337249254
 20
-1554.2366893706694
 30
0.0
 41
1.0
 10
824.20998931600388
 20
-1554.1391254305829
 30
0.0
 41
1.0
 10
824.31633024067219
 20
-1553.789749779357
 30
0.0
 41
0.99999524281111
 10
824.42051382998648
 20
-1553.4397247550423
 30
0.0
 41
1.0
 10
824.42557330032241
 20
-1553.4227264807555
 30
0.0
 41
1.0
 10
824.43063277065846
 20
-1553.4057282064684
 30
0.0
 41
1.0
 10
824.52469741931213
 20
-1553.0896997306904
 30
0.0
 41
0.9999931687520699
 10
824.61642325718503
 20
-1552.7729845174224
 30
0.0
 41
1.0
 10
824.62135852164715
 20
-1552.7559438081425
 30
0.0
 41
1.0
 10
824.62629378610916
 20
-1552.7389030988627
 30
0.0
 41
1.0
 10
824.70814909506112
 20
-1552.4562693041435
 30
0.0
 41
0.9999893840778407
 10
824.78739632151553
 20
-1552.1728931749053
 30
0.0
 41
1.0
 10
824.86664354797472
 20
-1551.8895170456508
 30
0.0
 41
0.9999833980076762
 10
824.942619788711
 20
-1551.6052464626421
 30
0.0
 41
1.0
 10
824.95162372543518
 20
-1551.5715575841568
 30
0.0
 41
1.0
 10
824.96062766215925
 20
-1551.5378687056714
 30
0.0
 41
1.0
 10
825.02959221102572
 20
-1551.2798328733747
 30
0.0
 41
0.9999233658063548
 10
825.09214718224587
 20
-1551.0201687146523
 30
0.0
 41
1.0
 10
825.15470215346613
 20
-1550.7605045559299
 30
0.0
 41
1.0
 10
825.1941855723237
 20
-1550.5966978915037
 30
0.0
 41
1.0
 10
825.19916417630134
 20
-1550.5760429296315
 30
0.0
 41
1.0
 10
825.20414278027908
 20
-1550.5553879677593
 30
0.0
 41
1.0
 10
825.23366899118253
 20
-1550.4328912270726
 30
0.0
 41
0.999986867084675
 10
825.26193807517745
 20
-1550.3100982814321
 30
0.0
 41
1.0
 10
825.26583556233732
 20
-1550.2931686940055
 30
0.0
 41
1.0
 10
825.26973304949729
 20
-1550.2762391065789
 30
0.0
 41
1.0
 10
825.29020715917522
 20
-1550.1873053357799
 30
0.0
 41
0.9999778173352778
 10
825.30949475728903
 20
-1550.0981067185562
 30
0.0
 41
1.0
 10
825.32878235540602
 20
-1550.0089081013195
 30
0.0
 41
0.9999602692861881
 10
825.34647671403638
 20
-1549.919379812894
 30
0.0
 41
1.0
 10
825.3496805461134
 20
-1549.9031693580109
 30
0.0
 41
1.0
 10
825.35288437819054
 20
-1549.8869589031281
 30
0.0
 41
1.0
 10
825.37698640097642
 20
-1549.7650097049316
 30
0.0
 41
0.9995617985319889
 10
825.39382974819478
 20
-1549.6418479572276
 30
0.0
 41
1.0
 10
825.39629423810106
 20
-1549.6238271398611
 30
0.0
 41
1.0
 10
825.39875872800746
 20
-1549.6058063224946
 30
0.0
 41
1.0
 10
825.41904198905593
 20
-1549.4574912727917
 30
0.0
 41
0.9991121410639681
 10
825.42676734264433
 20
-1549.3079951739855
 30
0.0
 41
1.0
 10
825.42768613266878
 20
-1549.2902153374116
 30
0.0
 41
1.0
 10
825.42860492269324
 20
-1549.2724355008377
 30
0.0
 41
1.0
 10
825.4344926962325
 20
-1549.1584990751819
 30
0.0
 41
0.998979249490597
 10
825.43007360411525
 20
-1549.0444962392812
 30
0.0
 41
1.0
 10
825.42942563224665
 20
-1549.0277799933556
 30
0.0
 41
1.0
 10
825.42877766037816
 20
-1549.0110637474302
 30
0.0
 41
1.0
 10
825.425654511998
 20
-1548.9304934033817
 30
0.0
 41
0.9997820295393807
 10
825.41917051462224
 20
-1548.8501236816387
 30
0.0
 41
1.0
 10
825.41268651724681
 20
-1548.7697539598976
 30
0.0
 41
0.9998335105974188
 10
825.40327432173535
 20
-1548.6896743434502
 30
0.0
 41
1.0
 10
825.40167939705873
 20
-1548.6761046129645
 30
0.0
 41
1.0
 10
825.4000844723821
 20
-1548.6625348824787
 30
0.0
 41
1.0
 10
825.38748242751785
 20
-1548.5553158050623
 30
0.0
 41
0.9996876457879161
 10
825.36953851471935
 20
-1548.4488603773464
 30
0.0
 41
1.0
 10
825.36730685157397
 20
-1548.4356206421039
 30
0.0
 41
1.0
 10
825.36507518842859
 20
-1548.4223809068612
 30
0.0
 41
1.0
 10
825.35127936700746
 20
-1548.3405347629034
 30
0.0
 41
0.9995547496495083
 10
825.33262604511515
 20
-1548.2596572657133
 30
0.0
 41
1.0
 10
825.33225208824376
 20
-1548.2580358550076
 30
0.0
 41
1.0
 10
825.33187813137238
 20
-1548.2564144443018
 30
0.0
 41
1.0
 10
825.31397272322238
 20
-1548.178779768522
 30
0.0
 41
0.999489942717566
 10
825.29114781454314
 20
-1548.1024464856878
 30
0.0
 41
1.0
 10
825.29068928780248
 20
-1548.1009130358993
 30
0.0
 41
1.0
 10
825.29023076106182
 20
-1548.0993795861111
 30
0.0
 41
1.0
 10
825.26832290586401
 20
-1548.0261132028536
 30
0.0
 41
0.9993784877590684
 10
825.24130727075726
 20
-1547.9545724976942
 30
0.0
 41
1.0
 10
825.24077557978035
 20
-1547.9531645149737
 30
0.0
 41
1.0
 10
825.24024388880343
 20
-1547.9517565322531
 30
0.0
 41
1.0
 10
825.2142916356504
 20
-1547.8830317925347
 30
0.0
 41
0.9992430832254637
 10
825.18307510049135
 20
-1547.8165326404669
 30
0.0
 41
1.0
 10
825.1824929844347
 20
-1547.8152925853497
 30
0.0
 41
1.0
 10
825.18191086837817
 20
-1547.8140525302322
 30
0.0
 41
1.0
 10
825.15185856533242
 20
-1547.7500334883996
 30
0.0
 41
0.9990789632798922
 10
825.11642793855526
 20
-1547.688826876649
 30
0.0
 41
1.0
 10
825.11583223237358
 20
-1547.6877977907905
 30
0.0
 41
1.0
 10
825.11523652619189
 20
-1547.6867687049319
 30
0.0
 41
1.0
 10
825.08099731177867
 20
-1547.6276202648994
 30
0.0
 41
0.9988874801120277
 10
825.04133803574655
 20
-1547.5719605524814
 30
0.0
 41
1.0
 10
825.04078250968223
 20
-1547.5711809008067
 30
0.0
 41
1.0
 10
825.0402269836178
 20
-1547.5704012491317
 30
0.0
 41
1.0
 10
825.00167875971499
 20
-1547.5163008400641
 30
0.0
 41
0.9986762060692442
 10
824.95777628843825
 20
-1547.4664471256247
 30
0.0
 41
1.0
 10
824.95733232810585
 20
-1547.465942983808
 30
0.0
 41
1.0
 10
824.95688836777356
 20
-1547.465438841991
 30
0.0
 41
1.0
 10
824.91387381716243
 20
-1547.4165934111857
 30
0.0
 41
0.9984621642487808
 10
824.86571626038426
 20
-1547.3728101107142
 30
0.0
 41
1.0
 10
824.86546962586726
 20
-1547.3725858785504
 30
0.0
 41
1.0
 10
824.86522299135038
 20
-1547.3723616463865
 30
0.0
 41
1.0
 10
824.81755870360553
 20
-1547.3290268102423
 30
0.0
 41
0.9982724693851851
 10
824.76514007176502
 20
-1547.2915824597253
 30
0.0
 41
1.0
 10
824.71272143992314
 20
-1547.2541381092074
 30
0.0
 41
0.9981399180157934
 10
824.65613537652916
 20
-1547.2233515897638
 30
0.0
 41
1.0
 10
824.65608971445124
 20
-1547.2233267466067
 30
0.0
 41
1.0
 10
824.65604405237332
 20
-1547.22330190345
 30
0.0
 41
1.0
 10
824.59936666482361
 20
-1547.1924656976923
 30
0.0
 41
0.9980927086836836
 10
824.53932131375768
 20
-1547.1688488888401
 30
0.0
 41
1.0
 10
824.53888114404549
 20
-1547.168675762965
 30
0.0
 41
1.0
 10
824.5384409743333
 20
-1547.1685026370897
 30
0.0
 41
1.0
 10
824.47751528384481
 20
-1547.1445395764877
 30
0.0
 41
0.9981411356562316
 10
824.41412676244636
 20
-1547.1281669349821
 30
0.0
 41
1.0
 10
824.41324464574382
 20
-1547.1279390927764
 30
0.0
 41
1.0
 10
824.41236252904127
 20
-1547.1277112505707
 30
0.0
 41
1.0
 10
824.34720977423842
 20
-1547.1108829246539
 30
0.0
 41
0.9983031812934731
 10
824.28054234524359
 20
-1547.1017435634778
 30
0.0
 41
1.0
 10
824.27167131984061
 20
-1547.1005274448066
 30
0.0
 41
1.0
 10
824.26280029443751
 20
-1547.0993113261354
 30
0.0
 41
1.0
 10
824.20845065193305
 20
-1547.0918605961442
 30
0.0
 41
0.9983887708263175
 10
824.1536068026395
 20
-1547.090615922511
 30
0.0
 41
1.0
 10
824.14554339742779
 20
-1547.0904329246364
 30
0.0
 41
1.0
 10
824.13747999221607
 20
-1547.0902499267615
 30
0.0
 41
1.0
 10
824.09876295335243
 20
-1547.0893712488778
 30
0.0
 41
0.9998869563079252
 10
824.06003700014401
 20
-1547.0896571182373
 30
0.0
 41
1.0
 10
824.02131104691432
 20
-1547.0899429875972
 30
0.0
 41
0.9999972320070355
 10
823.98258686767497
 20
-1547.0904110871265
 30
0.0
 41
1.0
 10
823.96323385112282
 20
-1547.0906450272157
 30
0.0
 41
1.0
 10
823.94388083457056
 20
-1547.0908789673049
 30
0.0
 41
1.0
 10
823.86645062219759
 20
-1547.0918149470126
 30
0.0
 41
0.9997304945087044
 10
823.78914731595751
 20
-1547.0963440407988
 30
0.0
 41
1.0
 10
823.78009767425556
 20
-1547.0968742467885
 30
0.0
 41
1.0
 10
823.77104803255372
 20
-1547.0974044527784
 30
0.0
 41
1.0
 10
823.67564544291065
 20
-1547.1029939585442
 30
0.0
 41
0.9997888306416557
 10
823.58055310707107
 20
-1547.1124989230329
 30
0.0
 41
1.0
 10
823.57183204549528
 20
-1547.1133706376654
 30
0.0
 41
1.0
 10
823.5631109839195
 20
-1547.1142423522979
 30
0.0
 41
1.0
 10
823.45057652493131
 20
-1547.1254907460511
 30
0.0
 41
0.9984170238190726
 10
823.34001737758012
 20
-1547.1493068279867
 30
0.0
 41
1.0
 10
823.30363624659481
 20
-1547.1571438637925
 30
0.0
 41
1.0
 10
823.26725511560949
 20
-1547.1649808995985
 30
0.0
 41
1.0
 10
823.15206404718685
 20
-1547.1897947661084
 30
0.0
 41
0.9976592854199521
 10
823.04133588078071
 20
-1547.230093443256
 30
0.0
 41
1.0
 10
822.9306077143757
 20
-1547.2703921204029
 30
0.0
 41
0.9993255074351367
 10
822.82313591558523
 20
-1547.3187090188956
 30
0.0
 41
1.0
 10
822.81851073666178
 20
-1547.3207883950954
 30
0.0
 41
1.0
 10
822.81388555773833
 20
-1547.322867771295
 30
0.0
 41
1.0
 10
822.69716340110153
 20
-1547.3753434221865
 30
0.0
 41
0.9976475078275303
 10
822.58871605679235
 20
-1547.443291411844
 30
0.0
 41
1.0
 10
822.57037366265331
 20
-1547.4547838906612
 30
0.0
 41
1.0
 10
822.55203126851427
 20
-1547.4662763694785
 30
0.0
 41
1.0
 10
822.46782907696615
 20
-1547.5190334902443
 30
0.0
 41
0.9995131336406101
 10
822.38708136201137
 20
-1547.5769397021959
 30
0.0
 41
1.0
 10
822.3063336470567
 20
-1547.634845914147
 30
0.0
 41
0.999581010760615
 10
822.2290719993282
 20
-1547.6973275966125
 30
0.0
 41
1.0
 10
822.22610196811661
 20
-1547.6997294680782
 30
0.0
 41
1.0
 10
822.22313193690502
 20
-1547.7021313395439
 30
0.0
 41
1.0
 10
822.139930226758
 20
-1547.7694167649374
 30
0.0
 41
0.9996617837954741
 10
822.06033953962185
 20
-1547.8409372204981
 30
0.0
 41
1.0
 10
822.04820878873988
 20
-1547.8518379534933
 30
0.0
 41
1.0
 10
822.03607803785792
 20
-1547.8627386864885
 30
0.0
 41
1.0
 10
821.96780251046323
 20
-1547.9240913019589
 30
0.0
 41
0.9997267750051329
 10
821.90246900218563
 20
-1547.988567838479
 30
0.0
 41
1.0
 10
821.83713549391064
 20
-1548.0530443749954
 30
0.0
 41
0.999966728895883
 10
821.77286255077922
 20
-1548.1185781818742
 30
0.0
 41
1.0
 10
821.70403510299207
 20
-1548.1887558406447
 30
0.0
 41
1.0
 10
821.63520765520502
 20
-1548.258933499415
 30
0.0
 41
1.0
 10
821.43327981650862
 20
-1548.4648226238255
 30
0.0
 41
0.9988205335174962
 10
821.25227419953046
 20
-1548.6893268558845
 30
0.0
 41
1.0
 10
821.22163423462484
 20
-1548.7273301063155
 30
0.0
 41
1.0
 10
821.19099426971934
 20
-1548.7653333567464
 30
0.0
 41
1.0
 10
820.94870872293188
 20
-1549.065844089665
 30
0.0
 41
0.9997077826755355
 10
820.72123077182607
 20
-1549.3777138838821
 30
0.0
 41
1.0
 10
820.7195073566952
 20
-1549.3800766672621
 30
0.0
 41
1.0
 10
820.71778394156422
 20
-1549.3824394506423
 30
0.0
 41
1.0
 10
820.48685916019792
 20
-1549.6990348116178
 30
0.0
 41
0.9989147567078706
 10
820.28639565731419
 20
-1550.0357442728034
 30
0.0
 41
1.0
 10
820.26165451200836
 20
-1550.0773008533538
 30
0.0
 41
1.0
 10
820.23691336670254
 20
-1550.1188574339042
 30
0.0
 41
1.0
 10
820.08170206806392
 20
-1550.3795588183593
 30
0.0
 41
0.9997476598181925
 10
819.93835708055371
 20
-1550.6469685669426
 30
0.0
 41
1.0
 10
819.79501209304578
 20
-1550.9143783155218
 30
0.0
 41
0.9996258967110061
 10
819.66650384111517
 20
-1551.189226252143
 30
0.0
 41
1.0
 10
819.65330393166175
 20
-1551.2174576522466
 30
0.0
 41
1.0
 10
819.64010402220833
 20
-1551.2456890523504
 30
0.0
 41
1.0
 10
819.49989530121115
 20
-1551.5455614502978
 30
0.0
 41
0.9998735413944825
 10
819.3692939544926
 20
-1551.8497410497616
 30
0.0
 41
1.0
 10
819.36585112643218
 20
-1551.8577596352261
 30
0.0
 41
1.0
 10
819.36240829837175
 20
-1551.8657782206906
 30
0.0
 41
1.0
 10
819.23869260777269
 20
-1552.153920649228
 30
0.0
 41
0.9999377418855422
 10
819.12143780559745
 20
-1552.4447521169041
 30
0.0
 41
1.0
 10
819.00418300342062
 20
-1552.7355835845842
 30
0.0
 41
0.999950829950658
 10
818.89271906004342
 20
-1553.0286832614058
 30
0.0
 41
1.0
 10
818.88963829138174
 20
-1553.0367842873675
 30
0.0
 41
1.0
 10
818.88655752272007
 20
-1553.0448853133294
 30
0.0
 41
1.0
 10
818.76893204202133
 20
-1553.3541870420686
 30
0.0
 41
0.9999609228436588
 10
818.65679343914564
 20
-1553.6655200580888
 30
0.0
 41
1.0
 10
818.65383742879499
 20
-1553.6737268985007
 30
0.0
 41
1.0
 10
818.65088141844444
 20
-1553.6819337389129
 30
0.0
 41
1.0
 10
818.53283079487039
 20
-1554.0096804357495
 30
0.0
 41
0.9999674607402677
 10
818.42008326880512
 20
-1554.3392890557363
 30
0.0
 41
1.0
 10
818.36868487824142
 20
-1554.4895482514316
 30
0.0
 41
1.0
 10
818.31728648767773
 20
-1554.6398074471269
 30
0.0
 41
1.0
 10
818.20127588092146
 20
-1554.9789554296258
 30
0.0
 41
0.9999287532305897
 10
818.09339447694947
 20
-1555.3207761686049
 30
0.0
 41
1.0
 10
818.04691722074961
 20
-1555.4680387131684
 30
0.0
 41
1.0
 10
818.00043996454974
 20
-1555.615301257732
 30
0.0
 41
1.0
 10
817.9855130729153
 20
-1555.6625969077813
 30
0.0
 41
0.9999998224707672
 10
817.97064256424824
 20
-1555.7099103158216
 30
0.0
 41
1.0
 10
816.34998642745279
 20
-1560.8579388176111
 30
0.0
 41
1.0
 10
814.72933029065734
 20
-1566.0059673194005
 30
0.0
 41
1.0
 10
813.82402184676641
 20
-1566.0059673194005
 30
0.0
 41
1.0
 10
812.91871340287548
 20
-1566.0059673194005
 30
0.0
 41
1.0
 10
814.77079781426153
 20
-1560.1188953969331
 30
0.0
 41
1.0
 10
816.62288222564757
 20
-1554.2318234744655
 30
0.0
 41
1.0
 10
816.63300398395029
 20
-1554.1997802610158
 30
0.0
 41
1.0
 10
816.70561165280003
 20
-1553.96948071919
 30
0.0
 41
1.0
 10
816.77821932165023
 20
-1553.7391811773628
 30
0.0
 41
0.9999825681975507
 10
816.84810236086207
 20
-1553.5080402822962
 30
0.0
 41
1.0
 10
816.89639342302132
 20
-1553.3483156988054
 30
0.0
 41
1.0
 10
816.94468448518057
 20
-1553.1885911153149
 30
0.0
 41
1.0
 10
817.04183683849578
 20
-1552.8672558935455
 30
0.0
 41
0.999967252895563
 10
817.13377564412212
 20
-1552.544390347949
 30
0.0
 41
1.0
 10
817.13656452778901
 20
-1552.534596502569
 30
0.0
 41
1.0
 10
817.139353411456
 20
-1552.524802657189
 30
0.0
 41
1.0
 10
817.22571444974005
 20
-1552.2215248023817
 30
0.0
 41
0.9999899749167289
 10
817.30935605928016
 20
-1551.9174857139105
 30
0.0
 41
1.0
 10
817.31946197829654
 20
-1551.8807504762362
 30
0.0
 41
1.0
 10
817.32956789731293
 20
-1551.844015238562
 30
0.0
 41
1.0
 10
817.392997668813
 20
-1551.6134466254643
 30
0.0
 41
0.9999214200503992
 10
817.45062709719264
 20
-1551.3813602832488
 30
0.0
 41
1.0
 10
817.46339294937695
 20
-1551.3299493978375
 30
0.0
 41
1.0
 10
817.47615880156127
 20
-1551.2785385124262
 30
0.0
 41
1.0
 10
817.50825652557592
 20
-1551.1492739410169
 30
0.0
 41
0.9999828681665752
 10
817.53883877756573
 20
-1551.0196424665719
 30
0.0
 41
1.0
 10
817.56942102955986
 20
-1550.8900109921092
 30
0.0
 41
0.9999389844479838
 10
817.59713201834836
 20
-1550.7597355362136
 30
0.0
 41
1.0
 10
817.60426976206963
 20
-1550.7261794323715
 30
0.0
 41
1.0
 10
817.61140750579079
 20
-1550.6926233285294
 30
0.0
 41
1.0
 10
817.65339398201922
 20
-1550.4952356649601
 30
0.0
 41
0.9998933699440887
 10
817.68959824642195
 20
-1550.2967060571998
 30
0.0
 41
1.0
 10
817.69097107163861
 20
-1550.2891780365012
 30
0.0
 41
1.0
 10
817.69234389685539
 20
-1550.2816500158028
 30
0.0
 41
1.0
 10
817.73129381169031
 20
-1550.0680643666515
 30
0.0
 41
0.9996850305193655
 10
817.7594774879484
 20
-1549.8527933612197
 30
0.0
 41
1.0
 10
817.76147252131796
 20
-1549.8375550070955
 30
0.0
 41
1.0
 10
817.76346755468762
 20
-1549.8223166529713
 30
0.0
 41
1.0
 10
817.79087541714671
 20
-1549.6129714258159
 30
0.0
 41
0.9994697936706652
 10
817.80459997636626
 20
-1549.4022862304851
 30
0.0
 41
1.0
 10
817.80507704561592
 20
-1549.3949627582756
 30
0.0
 41
1.0
 10
817.80555411486546
 20
-1549.3876392860661
 30
0.0
 41
1.0
 10
817.8183245355857
 20
-1549.1916010351576
 30
0.0
 41
0.9991804893136924
 10
817.81519621931307
 20
-1548.995172185181
 30
0.0
 41
1.0
 10
817.81511234049094
 20
-1548.989905383768
 30
0.0
 41
1.0
 10
817.81502846166882
 20
-1548.9846385823548
 30
0.0
 41
1.0
 10
817.81206790304032
 20
-1548.7987433352071
 30
0.0
 41
0.9988448329321376
 10
817.79127635741656
 20
-1548.6139907453742
 30
0.0
 41
1.0
 10
817.78968228371355
 20
-1548.5998258896027
 30
0.0
 41
1.0
 10
817.78808821001041
 20
-1548.5856610338312
 30
0.0
 41
1.0
 10
817.77048481179258
 20
-1548.4292381555397
 30
0.0
 41
0.998550320945883
 10
817.73616853949329
 20
-1548.2756139714515
 30
0.0
 41
1.0
 10
817.72858254742209
 20
-1548.2416536440519
 30
0.0
 41
1.0
 10
817.72099655535101
 20
-1548.207693316652
 30
0.0
 41
1.0
 10
817.701852267194
 20
-1548.1219897873641
 30
0.0
 41
0.999103678137066
 10
817.67552740554243
 20
-1548.0382127000373
 30
0.0
 41
1.0
 10
817.67154518008726
 20
-1548.0255395375293
 30
0.0
 41
1.0
 10
817.6675629546321
 20
-1548.0128663750215
 30
0.0
 41
1.0
 10
817.64920254389199
 20
-1547.9544356127146
 30
0.0
 41
0.9998874504369343
 10
817.62909733621291
 20
-1547.8965820104891
 30
0.0
 41
1.0
 10
817.60899212853462
 20
-1547.8387284082667
 30
0.0
 41
0.9994041637545027
 10
817.5849435156008
 20
-1547.7823997043774
 30
0.0
 41
1.0
 10
817.58074673137673
 20
-1547.7725696398954
 30
0.0
 41
1.0
 10
817.57654994715267
 20
-1547.7627395754134
 30
0.0
 41
1.0
 10
817.54867111615715
 20
-1547.6974394094443
 30
0.0
 41
0.9991846840702274
 10
817.51561475946448
 20
-1547.6346013781647
 30
0.0
 41
1.0
 10
817.5144781530696
 20
-1547.6324407617103
 30
0.0
 41
1.0
 10
817.51334154667472
 20
-1547.6302801452559
 30
0.0
 41
1.0
 10
817.48255840277102
 20
-1547.5717633468837
 30
0.0
 41
0.9989253167922753
 10
817.44648897871639
 20
-1547.5163484184941
 30
0.0
 41
1.0
 10
817.44543485404233
 20
-1547.514728923732
 30
0.0
 41
1.0
 10
817.44438072936839
 20
-1547.5131094289702
 30
0.0
 41
1.0
 10
817.4104195546621
 20
-1547.4609334901052
 30
0.0
 41
0.9986467172838178
 10
817.37122240202416
 20
-1547.4125674564743
 30
0.0
 41
1.0
 10
817.37034827332354
 20
-1547.4114888541963
 30
0.0
 41
1.0
 10
817.36947414462293
 20
-1547.4104102519182
 30
0.0
 41
1.0
 10
817.33202524938667
 20
-1547.3642014228446
 30
0.0
 41
0.9984001104267033
 10
817.28959851886952
 20
-1547.3225163154762
 30
0.0
 41
1.0
 10
817.28901138076037
 20
-1547.3219394405951
 30
0.0
 41
1.0
 10
817.28842424265122
 20
-1547.321362565714
 30
0.0
 41
1.0
 10
817.2471717883526
 20
-1547.2808312081077
 30
0.0
 41
0.9982442159083226
 10
817.20141568701683
 20
-1547.245462646847
 30
0.0
 41
1.0
 10
817.20120089155546
 20
-1547.2452966142041
 30
0.0
 41
1.0
 10
817.20098609609408
 20
-1547.2451305815612
 30
0.0
 41
1.0
 10
817.15565958568141
 20
-1547.2100940855871
 30
0.0
 41
0.9982450060837431
 10
817.1065086066094
 20
-1547.1806623025532
 30
0.0
 41
1.0
 10
817.05735762753773
 20
-1547.1512305195197
 30
0.0
 41
0.998392263963508
 10
817.00519132137288
 20
-1547.1275508848657
 30
0.0
 41
1.0
 10
817.00496444404837
 20
-1547.1274478993842
 30
0.0
 41
1.0
 10
817.00473756672386
 20
-1547.1273449139028
 30
0.0
 41
1.0
 10
816.95211750590988
 20
-1547.1034593082857
 30
0.0
 41
0.9986517147150084
 10
816.89730453304196
 20
-1547.0851581891641
 30
0.0
 41
1.0
 10
816.89662661161424
 20
-1547.0849318427327
 30
0.0
 41
1.0
 10
816.89594869018651
 20
-1547.0847054963012
 30
0.0
 41
1.0
 10
816.83977987446417
 20
-1547.065951684317
 30
0.0
 41
0.9989435598957144
 10
816.78212648731392
 20
-1547.0524339820827
 30
0.0
 41
1.0
 10
816.78104636773094
 20
-1547.0521807318294
 30
0.0
 41
1.0
 10
816.77996624814796
 20
-1547.0519274815761
 30
0.0
 41
1.0
 10
816.72015262183299
 20
-1547.0379032788355
 30
0.0
 41
0.9992249241240458
 10
816.65942111293487
 20
-1547.0286279361201
 30
0.0
 41
1.0
 10
816.65800742464432
 20
-1547.0284120277124
 30
0.0
 41
1.0
 10
816.65659373635378
 20
-1547.0281961193045
 30
0.0
 41
1.0
 10
816.59303485087264
 20
-1547.0184889597735
 30
0.0
 41
0.9994396597833066
 10
816.52896891433465
 20
-1547.013056037428
 30
0.0
 41
1.0
 10
816.50982824685821
 20
-1547.0114328697096
 30
0.0
 41
1.0
 10
816.49068757938176
 20
-1547.0098097019909
 30
0.0
 41
1.0
 10
816.38834030788928
 20
-1547.0011304442078
 30
0.0
 41
0.998769340312151
 10
816.28563668430218
 20
-1547.0026335076602
 30
0.0
 41
1.0
 10
816.27538235007387
 20
-1547.0027835794344
 30
0.0
 41
1.0
 10
816.26512801584556
 20
-1547.0029336512087
 30
0.0
 41
1.0
 10
816.1555722496679
 20
-1547.0045369954962
 30
0.0
 41
0.9989753644966177
 10
816.0466102496523
 20
-1547.0160400024215
 30
0.0
 41
1.0
 10
815.93764824963455
 20
-1547.0275430093468
 30
0.0
 41
0.998319006730507
 10
815.83074943866836
 20
-1547.051578001134
 30
0.0
 41
1.0
 10
815.82184848706288
 20
-1547.0535792796964
 30
0.0
 41
1.0
 10
815.8129475354574
 20
-1547.0555805582587
 30
0.0
 41
1.0
 10
815.68824682127854
 20
-1547.0836181071709
 30
0.0
 41
0.9985539388302525
 10
815.56727706760057
 20
-1547.1248817832168
 30
0.0
 41
1.0
 10
815.56493163664049
 20
-1547.1256818270326
 30
0.0
 41
1.0
 10
815.56258620568042
 20
-1547.1264818708482
 30
0.0
 41
1.0
 10
815.43692559008093
 20
-1547.1693456345256
 30
0.0
 41
0.9988468746493195
 10
815.31595524777981
 20
-1547.2240637195887
 30
0.0
 41
1.0
 10
815.31277242579199
 20
-1547.2255033941483
 30
0.0
 41
1.0
 10
815.30958960380417
 20
-1547.2269430687077
 30
0.0
 41
1.0
 10
815.18225361752718
 20
-1547.2845405028895
 30
0.0
 41
0.9991322885919257
 10
815.06015303346919
 20
-1547.3525358350721
 30
0.0
 41
1.0
 10
815.04255102242382
 20
-1547.3623380370627
 30
0.0
 41
1.0
 10
815.02494901137834
 20
-1547.3721402390534
 30
0.0
 41
1.0
 10
814.92277233032382
 20
-1547.4290403548325
 30
0.0
 41
0.9993860037849383
 10
814.82483132625123
 20
-1547.4929563704206
 30
0.0
 41
1.0
 10
814.81921301340253
 20
-1547.4966228651133
 30
0.0
 41
1.0
 10
814.81359470055395
 20
-1547.5002893598057
 30
0.0
 41
1.0
 10
814.72689032218148
 20
-1547.5568723860067
 30
0.0
 41
0.9998821494954213
 10
814.64196394636497
 20
-1547.6160906160858
 30
0.0
 41
1.0
 10
814.5570375705513
 20
-1547.6753088461633
 30
0.0
 41
0.999797648274383
 10
814.4745619401441
 20
-1547.7378952542078
 30
0.0
 41
1.0
 10
814.45992567534142
 20
-1547.7490019439861
 30
0.0
 41
1.0
 10
814.44528941053875
 20
-1547.760108633764
 30
0.0
 41
1.0
 10
814.33354125052699
 20
-1547.8449084213642
 30
0.0
 41
0.999809163079971
 10
814.22519097250131
 20
-1547.9340087720636
 30
0.0
 41
1.0
 10
814.21218522002209
 20
-1547.9447038725111
 30
0.0
 41
1.0
 10
814.19917946754299
 20
-1547.9553989729588
 30
0.0
 41
1.0
 10
814.06481768456081
 20
-1548.0658895245524
 30
0.0
 41
0.9995035112317757
 10
813.93768180679717
 20
-1548.1846233415674
 30
0.0
 41
1.0
 10
813.92803449641087
 20
-1548.1936330877243
 30
0.0
 41
1.0
 10
813.91838718602457
 20
-1548.2026428338813
 30
0.0
 41
1.0
 10
813.79496412325841
 20
-1548.317909205638
 30
0.0
 41
0.9994630424299213
 10
813.67935571747353
 20
-1548.4410119488741
 30
0.0
 41
1.0
 10
813.67567287870042
 20
-1548.4449335283889
 30
0.0
 41
1.0
 10
813.67199003992721
 20
-1548.4488551079039
 30
0.0
 41
1.0
 10
813.56374731168796
 20
-1548.5641146921107
 30
0.0
 41
0.9995160693749325
 10
813.46288128215758
 20
-1548.6858821099818
 30
0.0
 41
1.0
 10
813.46094756207799
 20
-1548.6882165341885
 30
0.0
 41
1.0
 10
813.45901384199828
 20
-1548.6905509583955
 30
0.0
 41
1.0
 10
813.36201525262732
 20
-1548.8076495278526
 30
0.0
 41
0.9996561470514404
 10
813.27128903395976
 20
-1548.9296722903036
 30
0.0
 41
1.0
 10
813.26513136806147
 20
-1548.9379540793409
 30
0.0
 41
1.0
 10
813.2589737021633
 20
-1548.9462358683782
 30
0.0
 41
1.0
 10
813.18056281529732
 20
-1549.0516950527481
 30
0.0
 41
0.9998349055172465
 10
813.10603553336159
 20
-1549.1599336364161
 30
0.0
 41
1.0
 10
813.03150825142802
 20
-1549.2681722200819
 30
0.0
 41
0.999972810956465
 10
812.95858535551099
 20
-1549.3774981456472
 30
0.0
 41
1.0
 10
812.95727014010345
 20
-1549.3794699151435
 30
0.0
 41
1.0
 10
812.95595492469579
 20
-1549.3814416846399
 30
0.0
 41
1.0
 10
812.88040159797561
 20
-1549.4947111491801
 30
0.0
 41
0.9999972147302494
 10
812.80538378761844
 20
-1549.6083359919899
 30
0.0
 41
1.0
 10
812.80041224498086
 20
-1549.6158660804851
 30
0.0
 41
1.0
 10
812.7954407023434
 20
-1549.6233961689804
 30
0.0
 41
1.0
 10
812.71047980672711
 20
-1549.7520811887571
 30
0.0
 41
0.9999371979004197
 10
812.6284244573219
 20
-1549.882638102536
 30
0.0
 41
1.0
 10
812.62491557295914
 20
-1549.8882210306026
 30
0.0
 41
1.0
 10
812.62140668859638
 20
-1549.8938039586692
 30
0.0
 41
1.0
 10
812.53233357046429
 20
-1550.0355267285834
 30
0.0
 41
0.9998272025611023
 10
812.44859017957856
 20
-1550.1804626053322
 30
0.0
 41
1.0
 10
812.43337500755808
 20
-1550.2067957197828
 30
0.0
 41
1.0
 10
812.41815983553761
 20
-1550.2331288342334
 30
0.0
 41
1.0
 10
812.3039861006082
 20
-1550.4307309398882
 30
0.0
 41
0.9995217214838138
 10
812.20224641105301
 20
-1550.6350132677489
 30
0.0
 41
1.0
 10
812.19460284841716
 20
-1550.6503607174536
 30
0.0
 41
1.0
 10
812.1869592857812
 20
-1550.6657081671585
 30
0.0
 41
1.0
 10
812.10005399319311
 20
-1550.8402046252368
 30
0.0
 41
0.9998269762607391
 10
812.01969952692002
 20
-1551.0178129119622
 30
0.0
 41
1.0
 10
811.93934506064716
 20
-1551.195421198687
 30
0.0
 41
0.9998944747387365
 10
811.86418426607918
 20
-1551.3752889243246
 30
0.0
 41
1.0
 10
811.85923059648724
 20
-1551.3871435792439
 30
0.0
 41
1.0
 10
811.8542769268953
 20
-1551.3989982341632
 30
0.0
 41
1.0
 10
811.77362986634319
 20
-1551.5919951741798
 30
0.0
 41
0.9999506734409768
 10
811.69683233744422
 20
-1551.7865559790253
 30
0.0
 41
1.0
 10
811.68223237217308
 20
-1551.823543900832
 30
0.0
 41
1.0
 10
811.66763240690182
 20
-1551.8605318226387
 30
0.0
 41
1.0
 10
811.62003480854219
 20
-1551.981116783877
 30
0.0
 41
0.9999912393957786
 10
811.57344836451807
 20
-1552.1020959865771
 30
0.0
 41
1.0
 10
811.5268619205001
 20
-1552.2230751892616
 30
0.0
 41
0.9999927113944312
 10
811.48120062611065
 20
-1552.3444065967501
 30
0.0
 41
1.0
 10
811.46723219470834
 20
-1552.3815235787615
 30
0.0
 41
1.0
 10
811.45326376330604
 20
-1552.4186405607727
 30
0.0
 41
1.0
 10
811.37966560611812
 20
-1552.6142059322676
 30
0.0
 41
0.9999487550951485
 10
811.31004198114852
 20
-1552.8112212974443
 30
0.0
 41
1.0
 10
811.28644837121146
 20
-1552.8779846077373
 30
0.0
 41
1.0
 10
811.26285476127453
 20
-1552.9447479180301
 30
0.0
 41
1.0
 10
811.16816912689978
 20
-1553.212681752867
 30
0.0
 41
0.9999808436943993
 10
811.07680753825889
 20
-1553.4817671841299
 30
0.0
 41
1.0
 10
810.98544594960879
 20
-1553.7508526154199
 30
0.0
 41
0.9999873932918735
 10
810.896791240889
 20
-1554.0208419704393
 30
0.0
 41
1.0
 10
810.87669888402479
 20
-1554.0820313031763
 30
0.0
 41
1.0
 10
810.85660652716069
 20
-1554.1432206359136
 30
0.0
 41
1.0
 10
810.72776710470362
 20
-1554.535588656433
 30
0.0
 41
0.9999794883029513
 10
810.60396431974391
 20
-1554.9295748627164
 30
0.0
 41
1.0
 10
810.59281206030641
 20
-1554.9650654729535
 30
0.0
 41
1.0
 10
810.58165980086892
 20
-1555.0005560831905
 30
0.0
 41
1.0
 10
810.4391016369766
 20
-1555.4542288352609
 30
0.0
 41
0.9999982761697507
 10
810.29822919695812
 20
-1555.9084278573939
 30
0.0
 41
1.0
 10
808.71008886438551
 20
-1560.9571975883973
 30
0.0
 41
1.0
 10
807.1219485318129
 20
-1566.0059673194005
 30
0.0
 41
1.0
 10
806.17319792033652
 20
-1566.0059673194005
 30
0.0
 41
1.0
 10
805.22444730886014
 20
-1566.0059673194005
 30
0.0
 41
1.0
 10
808.46273179501327
 20
-1555.6786451194544
 30
0.0
 41
1.0
 10
811.70101628116652
 20
-1545.3513229195082
 30
0.0
 41
1.0
  0
LWPOLYLINE
  5
5F
100
AcDbEntity
  8
0
370
              15
390
0
  6
Continuous
 62
               7
100
AcDbPolyline
 90
      232
 70
             128
 10
785.99747050733947
 20
-1546.4356657510234
 42
0.0004370800688307
 10
785.9445933333426
 20
-1546.5043323901818
 10
785.90530910214
 20
-1546.5554395031763
 42
0.0030481992177765
 10
785.77497038502145
 20
-1546.7271611955198
 10
785.73645871327039
 20
-1546.7785479793085
 42
0.0042058245764479
 10
785.53247366259563
 20
-1547.0555537243893
 10
785.48006854009986
 20
-1547.1279865711631
 42
0.0120948898742607
 10
785.18402462333836
 20
-1547.5587361757121
 10
785.08783212420963
 20
-1547.7062169109474
 42
0.0141601263951795
 10
784.78418807729452
 20
-1548.2018862476723
 10
784.74465080986852
 20
-1548.2707302151039
 42
0.0071131081297876
 10
784.53937848663008
 20
-1548.6402330139422
 42
0.006845879100214
 10
784.34449895978889
 20
-1549.0153245774147
 10
784.33768709732931
 20
-1549.028886291142
 42
0.0064120880291788
 10
784.13954484728288
 20
-1549.4363107660654
 10
784.13201016176799
 20
-1549.452322622782
 42
0.005885723644767
 10
783.92925476989944
 20
-1549.8966987338099
 10
783.92107984360234
 20
-1549.915188887451
 42
0.0053189741897135
 10
783.71237553093272
 20
-1550.4011523613738
 10
783.70362772525345
 20
-1550.4221342395649
 42
0.0047503650417996
 10
783.48765399909905
 20
-1550.9543336727838
 10
783.47838575075457
 20
-1550.9778100488825
 42
0.0042071762170202
 10
783.2538383670219
 20
-1551.5609036429653
 10
783.24408896467821
 20
-1551.5868698178219
 42
0.0036680086486547
 10
783.0096343213653
 20
-1552.2255052023559
 10
782.99942654151835
 20
-1552.2539537366979
 42
0.0032573142628169
 10
782.75379425555036
 20
-1552.9528063964549
 10
782.68514373470589
 20
-1553.1522694805192
 42
0.0026133366649882
 10
782.33669853595302
 20
-1554.182132764176
 10
782.27344174846053
 20
-1554.3723635995443
 42
0.0020592950738756
 10
782.05957867948518
 20
-1555.0244672521821
 10
782.05652688832572
 20
-1555.0339037405806
 42
0.002560992853428
 10
781.85470638683626
 20
-1555.6690489629577
 10
781.85211501970593
 20
-1555.67735130391
 42
0.0031362356240584
 10
781.66262423403259
 20
-1556.2981141600778
 10
781.66049319110493
 20
-1556.3052554662897
 42
0.0037229918028352
 10
781.48369280417887
 20
-1556.914240768263
 10
781.4820142149772
 20
-1556.9201876584207
 42
0.0043077623705833
 10
781.31827341290739
 20
-1557.5200063902066
 42
0.0047654161823748
 10
781.16544469039093
 20
-1558.1226924791108
 10
781.13098008155225
 20
-1558.2642542562585
 42
0.0112969368443973
 10
780.9351157234089
 20
-1559.1559464168818
 10
780.90710933431205
 20
-1559.2987744629806
 42
0.0130056762570116
 10
780.70627209066538
 20
-1560.4857155346256
 10
780.68573234051894
 20
-1560.6297936480978
 42
0.013872153214426
 10
780.58202933598045
 20
-1561.5366231339283
 10
780.56273384807275
 20
-1561.7601208558508
 42
0.0071254697009196
 10
780.52938720215002
 20
-1562.2233078647005
 10
780.52442622798651
 20
-1562.3093118592656
 42
0.0028881799205408
 10
780.50928793469689
 20
-1562.6010535691034
 42
0.0060297297134329
 10
780.49935573492144
 20
-1562.8930025052134
 10
780.49829345325418
 20
-1562.9413948771514
 42
0.0229523164156297
 10
780.50602448103996
 20
-1563.2641497234349
 10
780.51025025456033
 20
-1563.3245532574513
 42
0.0123673300665962
 10
780.52932890107866
 20
-1563.5256739826259
 42
0.0128577674470084
 10
780.55852429148467
 20
-1563.7255718325512
 10
780.56565016487195
 20
-1563.7669006471497
 42
0.0285717853763512
 10
780.63014416656745
 20
-1564.0450167984618
 10
780.64381269023386
 20
-1564.0916715679391
 42
0.0316283099162849
 10
780.75962327014827
 20
-1564.4106860697659
 10
780.76267196190361
 20
-1564.4176724420911
 42
0.0338984824240146
 10
780.91210367287101
 20
-1564.7052384062806
 10
780.91441240224049
 20
-1564.709029435556
 42
0.03502287183483
 10
781.09677269291444
 20
-1564.9660814202334
 10
781.09765794468944
 20
-1564.9671604979976
 42
0.0347476747525707
 10
781.31208263192957
 20
-1565.1943455452174
 42
0.0331337701907692
 10
781.55532595767556
 20
-1565.3904742072948
 10
781.55642605619209
 20
-1565.3912469104675
 42
0.0305233319078089
 10
781.82497075176559
 20
-1565.5563750805588
 10
781.82820079626663
 20
-1565.5580990924213
 42
0.0273744481157556
 10
782.12075450784187
 20
-1565.6942372363121
 10
782.1258590429785
 20
-1565.6962808207816
 42
0.0240964406197451
 10
782.44133611862424
 20
-1565.8052645470627
 10
782.44791944783424
 20
-1565.8071892867379
 42
0.0209636179811744
 10
782.78531960048429
 20
-1565.8906574346695
 10
782.79295206093548
 20
-1565.8922093476715
 42
0.0181388704693586
 10
783.15127445293547
 20
-1565.9516254408857
 10
783.15955530131214
 20
-1565.9526916247025
 42
0.015608654758492
 10
783.5377426655001
 20
-1565.9894278112793
 10
783.58093791783074
 20
-1565.9922663137584
 42
0.0137148329025116
 10
783.90861106312684
 20
-1566.0047865690094
 10
783.95454725306593
 20
-1566.0052810021245
 42
0.0051057823885986
 10
784.19069283964507
 20
-1566.005411256534
 42
0.005225669330972
 10
784.42679012343444
 20
-1566.0006624320695
 10
784.49701690717313
 20
-1565.9985154660556
 42
0.0161507179048564
 10
784.87275398527379
 20
-1565.974865095729
 10
784.89276694564751
 20
-1565.9729549004414
 42
0.0101216737834777
 10
785.30679416714327
 20
-1565.9249619700752
 10
785.34084745656492
 20
-1565.9203142732663
 42
0.0245291776397656
 10
785.81763711211522
 20
-1565.8312391951902
 10
785.9024604276425
 20
-1565.8110432748435
 42
0.0143509212562148
 10
786.25909153157966
 20
-1565.7152386410653
 42
0.0156557857038982
 10
786.6093075963048
 20
-1565.5982274252474
 10
786.61680881080156
 20
-1565.5954572634923
 42
0.0170137333631358
 10
786.9734048064837
 20
-1565.4497996486209
 10
786.98050872889041
 20
-1565.4466118130576
 42
0.0183105364405487
 10
787.33985839705178
 20
-1565.269276771236
 10
787.34680516169544
 20
-1565.2655263363613
 42
0.0194899958147884
 10
787.70528590267918
 20
-1565.0535473544708
 10
787.71229978201609
 20
-1565.0490220121756
 42
0.0204869852948457
 10
788.06631408410919
 20
-1564.7995019970904
 10
788.07357969269708
 20
-1564.7939219317414
 42
0.0212516938555661
 10
788.4195696238038
 20
-1564.5040179348478
 10
788.46608631787979
 20
-1564.461550624754
 42
0.0215248918251865
 10
788.72611248676844
 20
-1564.2027863457583
 10
788.77114222114767
 20
-1564.1539422244102
 42
0.0114578554958363
 10
788.92593437482628
 20
-1563.9781192909504
 10
788.93712891081395
 20
-1563.9648005274037
 42
0.0061531305139987
 10
789.06360355680738
 20
-1563.8105109940993
 42
0.0006325587120958
 10
789.1879820409581
 20
-1563.6545076184248
 10
789.2110221760106
 20
-1563.6255340977641
 42
0.0041897761554819
 10
789.3794775799895
 20
-1563.4100147216946
 10
789.43793969987553
 20
-1563.3339133747172
 42
0.0092993880035439
 10
789.71455162709412
 20
-1562.9596346108403
 10
789.7969461202963
 20
-1562.8436976072671
 42
0.0159321727083453
 10
790.14355260294053
 20
-1562.3215233865085
 10
790.187908738327
 20
-1562.2498438222626
 42
0.0085547317023655
 10
790.4224205036553
 20
-1561.8559688730338
 42
0.0084601156889246
 10
790.64339668109812
 20
-1561.4543420240004
 10
790.65151215492779
 20
-1561.4389823417287
 42
0.0081429654284813
 10
790.87476142536309
 20
-1560.9992608291925
 10
790.88362158954931
 20
-1560.9810819871686
 42
0.007657458132943
 10
791.11002910012166
 20
-1560.4978991119031
 10
791.11950874083971
 20
-1560.4768346336123
 42
0.0070682724199707
 10
791.34995364864767
 20
-1559.9447973288284
 10
791.3599439326282
 20
-1559.9208081398197
 42
0.0064559514448307
 10
791.59527714080912
 20
-1559.3344958733023
 10
791.60568649897482
 20
-1559.3075609478583
 42
0.0058311413907172
 10
791.84673323573543
 20
-1558.6615288534811
 10
791.85748831312515
 20
-1558.6316445123143
 42
0.005231242581976
 10
792.10506959116401
 20
-1557.9204420984852
 10
792.11611342754577
 20
-1557.8876153864098
 42
0.0046680544796515
 10
792.37104185528176
 20
-1557.1057890706504
 10
792.41303400532763
 20
-1556.9728058333508
 42
0.0041666856448121
 10
792.61632001771886
 20
-1556.3098370583575
 10
792.65398245837741
 20
-1556.1832559507216
 42
0.0015170975157046
 10
792.77516903679566
 20
-1555.7713875992101
 42
-0.0004887993113763
 10
792.89550880994454
 20
-1555.3592691870801
 10
792.97198606741381
 20
-1555.0983118012271
 42
0.0002583378929194
 10
793.24520063759553
 20
-1554.164255097646
 10
793.32697348704676
 20
-1553.8841558384925
 42
0.0006636169672675
 10
793.52084124706607
 20
-1553.2168029148779
 10
793.52593790142589
 20
-1553.1991713319537
 42
0.0010589131321034
 10
793.70738660232973
 20
-1552.566439988949
 10
793.71236867281289
 20
-1552.5489270819196
 42
0.0015655524462414
 10
793.88063887999306
 20
-1551.9503104027281
 10
793.88546908039507
 20
-1551.9329182438389
 42
0.0021640440477639
 10
794.03975905239395
 20
-1551.3678912257742
 10
794.04439327182081
 20
-1551.3506264957916
 42
0.0028763871851809
 10
794.18390898987695
 20
-1550.8186585449332
 10
794.1882948540474
 20
-1550.8015345667663
 42
0.0037310511947965
 10
794.31225154588105
 20
-1550.3020869727548
 10
794.31632676616766
 20
-1550.2851267015192
 42
0.0047652197767401
 10
794.42395066667848
 20
-1549.8176489332043
 10
794.42764126600366
 20
-1549.8008893780461
 42
0.0060276699306524
 10
794.51817136515547
 20
-1549.3648135829101
 10
794.52139005544473
 20
-1549.3483123686003
 42
0.007582433776077
 10
794.59407936486014
 20
-1548.9430452041747
 10
794.5967247422418
 20
-1548.9268902567158
 42
0.0095130624613382
 10
794.65083997787156
 20
-1548.5518009036523
 10
794.65782620175389
 20
-1548.4958673455383
 42
0.0121054653221953
 10
794.68441753233208
 20
-1548.230971517062
 10
794.68528402209165
 20
-1548.219568074132
 42
0.0069050827393394
 10
794.70037284012938
 20
-1547.9766268472886
 10
794.70150813979797
 20
-1547.9531005902429
 42
0.016906397670186
 10
794.7043354187781
 20
-1547.7569078629431
 10
794.70316476724702
 20
-1547.696572101602
 42
0.0052007732895582
 10
794.70091131865388
 20
-1547.6209787114419
 42
0.0054038123300359
 10
794.68094780681281
 20
-1547.5009604154191
 10
794.67586195094464
 20
-1547.4723019288508
 42
0.011205046045977
 10
794.6404775888858
 20
-1547.2959754905105
 10
794.62265262684537
 20
-1547.2164339037909
 42
0.0240764468010143
 10
794.53175526069901
 20
-1546.8861968682895
 10
794.51319649788616
 20
-1546.8295767032969
 42
0.0256812331833842
 10
794.36983357769623
 20
-1546.4578524970386
 10
794.36442415187469
 20
-1546.4457211620486
 42
0.0268360501217061
 10
794.19499691102499
 20
-1546.1147280280279
 10
794.18946050339082
 20
-1546.1052083577169
 42
0.0274670231729712
 10
793.99725952697668
 20
-1545.8129209827985
 10
793.99187822701333
 20
-1545.8056418352562
 42
0.0275035967102469
 10
793.78030534745221
 20
-1545.5501259449529
 10
793.77523584648623
 20
-1545.544646857323
 42
0.0269557673522521
 10
793.54783230304611
 20
-1545.3240045713601
 10
793.54308924526424
 20
-1545.3198746169001
 42
0.0259124802212121
 10
793.30353441383272
 20
-1545.1321840897472
 10
793.29900356865039
 20
-1545.1289985874166
 42
0.0245162153002568
 10
793.05108721555598
 20
-1544.9722655783062
 10
793.04656066923314
 20
-1544.9697053811062
 42
0.022928258883543
 10
792.79414111240442
 20
-1544.8418371886064
 10
792.789360618567
 20
-1544.8396848888442
 42
0.0212984135693408
 10
792.53632266610589
 20
-1544.7384859716021
 10
792.53101838113503
 20
-1544.7366224088416
 42
0.0197555462340256
 10
792.28124004341339
 20
-1544.6598069908773
 42
0.0183511896786291
 10
792.02631131795056
 20
-1544.602224083912
 10
791.93994612122663
 20
-1544.5860212935268
 42
0.0338057877149193
 10
791.65443877196697
 20
-1544.5522128883867
 10
791.5634333669326
 20
-1544.5476332331257
 42
0.0091990524494196
 10
791.45758625829103
 20
-1544.5442573772032
 42
0.0028333980776086
 10
791.3516723422731
 20
-1544.5434292696862
 10
791.35075688924871
 20
-1544.5434272998623
 42
-0.0023619827795404
 10
791.24301087411084
 20
-1544.5426864587837
 10
791.20660570396694
 20
-1544.542264152321
 42
0.0008824598483489
 10
791.02604971414951
 20
-1544.540488374083
 10
790.98218828171116
 20
-1544.5401344125571
 42
0.0038132665772532
 10
790.71390538582762
 20
-1544.5400154764905
 10
790.69737173103886
 20
-1544.5401342426339
 42
0.0060665569334767
 10
790.39609123943876
 20
-1544.5459545420549
 10
790.3818409074222
 20
-1544.5464028500223
 42
0.0080356953336713
 10
790.05238219108844
 20
-1544.5620705720889
 10
790.04031217599572
 20
-1544.5628391550297
 42
0.0098996399105693
 10
789.68754909134236
 20
-1544.592324384228
 10
789.67750338197015
 20
-1544.593364680426
 42
0.0117740981365056
 10
789.30634652362721
 20
-1544.640656927955
 10
789.29812382713885
 20
-1544.6419020445267
 42
0.0137435215134034
 10
788.91353500765536
 20
-1544.7109990180879
 10
788.90687796853035
 20
-1544.7123849143218
 42
0.0158359869382808
 10
788.51388087473356
 20
-1544.8072770028011
 10
788.50846768786073
 20
-1544.8087669436732
 42
0.018055412402449
 10
788.11215264325233
 20
-1544.9334049599104
 10
788.10759585516496
 20
-1544.9350209961781
 42
0.0203657431283764
 10
787.71311833735103
 20
-1545.0932813376951
 10
787.70897479834628
 20
-1545.095142959136
 42
0.0226819684657506
 10
787.3215387421418
 20
-1545.2907855378073
 10
787.3173389511245
 20
-1545.2931511297265
 42
0.0248634984607916
 10
786.94215700994209
 20
-1545.5297777756748
 10
786.8939620811617
 20
-1545.5636348174978
 42
0.0267044190882006
 10
786.6196693842428
 20
-1545.7790751933676
 42
0.0139303002200831
 10
786.36350221829559
 20
-1546.0163140342879
 10
786.35864883258307
 20
-1546.0210666971398
 42
0.0283460963439393
 10
786.11457623835634
 20
-1546.2887973575841
 10
786.07490773319932
 20
-1546.3375989350579
 42
0.0070695364826285
 10
785.99747050733947
 20
-1546.4356657510234
 42
0.0070695364826285
  0
LWPOLYLINE
  5
60
100
AcDbEntity
  8
0
370
              15
390
0
  6
Continuous
 62
               7
100
AcDbPolyline
 90
      226
 70
             128
 10
782.46865007009308
 20
-1562.1572545572074
 42
-0.0026277636626519
 10
782.46857218629293
 20
-1562.0904826314927
 10
782.46878954452507
 20
-1562.0373274140211
 42
-0.008868029673016
 10
782.47256616081813
 20
-1561.8643116316168
 10
782.47491251993051
 20
-1561.8050316061644
 42
-0.0077381705618706
 10
782.49095863069294
 20
-1561.5137711103764
 10
782.49182654186677
 20
-1561.5014828766812
 42
-0.0068872530534444
 10
782.51845862161463
 20
-1561.1862611246154
 10
782.51966284580101
 20
-1561.1740201455937
 42
-0.0062130021489241
 10
782.5572565626295
 20
-1560.8351504543493
 10
782.5587604661639
 20
-1560.8229765824385
 42
-0.0056726929667222
 10
782.60768232566545
 20
-1560.4607813603304
 10
782.60945577131065
 20
-1560.4486875600796
 42
-0.0052341884490128
 10
782.67006635757093
 20
-1560.0634943045598
 10
782.67208434634722
 20
-1560.0514893745694
 42
-0.0049768450168716
 10
782.74482302777324
 20
-1559.643644807139
 10
782.7690720424954
 20
-1559.515096824131
 42
-0.008902980562688
 10
782.90615289428843
 20
-1558.8533213767159
 10
782.93889826960867
 20
-1558.708289946185
 42
-0.0080318257097873
 10
783.16844688394974
 20
-1557.7625803143301
 10
783.18043181039764
 20
-1557.7164496791411
 42
-0.0074265721316618
 10
783.46444334925241
 20
-1556.686385100744
 10
783.48432289236371
 20
-1556.6182510401732
 42
-0.0069711922702394
 10
783.81162747087092
 20
-1555.5519832998434
 10
783.8715794179742
 20
-1555.3659619414796
 42
-0.0052070422896356
 10
784.10100464323568
 20
-1554.6786898644414
 10
784.11828583541296
 20
-1554.6286625838095
 42
-0.0009167004448317
 10
784.32137772269743
 20
-1554.0442067356703
 42
-0.0025162726945255
 10
784.52847535296053
 20
-1553.4611654715059
 10
784.56569996475673
 20
-1553.358015925626
 42
-0.0028212681457312
 10
784.81387588372854
 20
-1552.6822852934311
 10
784.82370664648397
 20
-1552.6559778487417
 42
-0.0031964916819331
 10
785.05999890414148
 20
-1552.0357730866274
 10
785.06963335814078
 20
-1552.0109630964832
 42
-0.0036281836452214
 10
785.29473931924167
 20
-1551.4435224155909
 10
785.30417772940109
 20
-1551.4202249840835
 42
-0.0041269166835355
 10
785.51879542605832
 20
-1550.9027840881099
 10
785.55142838248139
 20
-1550.8259056417435
 42
-0.0047472213056272
 10
785.70847318803271
 20
-1550.4654841738654
 10
785.71536726922773
 20
-1550.450063576563
 42
-0.0025651659998858
 10
785.86372530309109
 20
-1550.122735520785
 42
-0.0057144634997707
 10
786.01747499686519
 20
-1549.7979258474168
 10
786.04550570226581
 20
-1549.7404174650239
 42
-0.0065388068373892
 10
786.22897273000342
 20
-1549.3761849683633
 10
786.23743118577988
 20
-1549.3599253889977
 42
-0.0074510843024592
 10
786.41361343165977
 20
-1549.0332371078712
 10
786.42179310219444
 20
-1549.0185963305958
 42
-0.0084648979861831
 10
786.5914269552909
 20
-1548.7266873196411
 10
786.59928308177484
 20
-1548.7136803279971
 42
-0.0095638542811227
 10
786.76311852937317
 20
-1548.4537914560117
 10
786.77059347304282
 20
-1548.4424220945596
 42
-0.0107191626808812
 10
786.92939505343247
 20
-1548.2118108600121
 10
786.9364117871628
 20
-1548.2020747676486
 42
-0.0118458573903945
 10
787.09095988567606
 20
-1547.9980025723369
 42
-0.0129184518191903
 10
787.25541250928143
 20
-1547.8018420561623
 10
787.28555728164474
 20
-1547.7677159772625
 42
-0.0217742579627884
 10
787.46216960397601
 20
-1547.5845092070167
 10
787.47291514843482
 20
-1547.5742923738153
 42
-0.0097266568649
 10
787.63897276729222
 20
-1547.4224447993765
 42
-0.0187720905713806
 10
787.81332034318416
 20
-1547.2803759459855
 10
787.84402633385253
 20
-1547.2572168635936
 42
-0.0179428207520643
 10
788.07644705385201
 20
-1547.0946646864795
 10
788.08009938076964
 20
-1547.0923007515905
 42
-0.0170047877696912
 10
788.31586301829816
 20
-1546.9508402374404
 10
788.31964600704634
 20
-1546.9487419324032
 42
-0.0160190788369568
 10
788.55655455468002
 20
-1546.827090630416
 42
-0.015110286149436
 10
788.80058633712736
 20
-1546.7204078543609
 10
788.85297283933846
 20
-1546.6993677214666
 42
-0.0271945441887264
 10
789.21163539839688
 20
-1546.5775029107606
 10
789.28070019888526
 20
-1546.5581533694942
 42
-0.0237596594020601
 10
789.69649704590734
 20
-1546.4627026575126
 10
789.76455989963893
 20
-1546.4504479693858
 42
-0.0213715440553744
 10
790.05043483108307
 20
-1546.4115009378761
 10
790.11058199730087
 20
-1546.4059112231753
 42
-0.0101465655818212
 10
790.27807452929517
 20
-1546.393767679911
 10
790.28741491548828
 20
-1546.3932807649139
 42
-0.0100375910877559
 10
790.43656901605596
 20
-1546.3885049469886
 10
790.44682828574332
 20
-1546.388382507974
 42
-0.0103625633371761
 10
790.57553628039113
 20
-1546.3895139415008
 10
790.5978019316608
 20
-1546.3901712999659
 42
-0.0115689250231377
 10
790.68185266918601
 20
-1546.3946008062107
 42
-0.0072438037425551
 10
790.76569094862316
 20
-1546.4021900059599
 10
790.78249145809798
 20
-1546.4039565486844
 42
-0.0217917313136761
 10
790.89906122141156
 20
-1546.4213764414055
 10
790.96466131198088
 20
-1546.4341230498205
 42
-0.0332943556753743
 10
791.16905347700663
 20
-1546.4881633411269
 10
791.19922604555211
 20
-1546.4983314182439
 42
-0.0184824084797727
 10
791.33773110202219
 20
-1546.5507824336319
 42
-0.0198002050690701
 10
791.47180544251921
 20
-1546.6136664938301
 10
791.47369207989846
 20
-1546.6146442807112
 42
-0.0212242342990935
 10
791.60583102229771
 20
-1546.6904070195028
 10
791.60764631784377
 20
-1546.6915528217128
 42
-0.0226090605797788
 10
791.73615021906494
 20
-1546.7810324652767
 10
791.737994660803
 20
-1546.7824447182647
 42
-0.0238457052241996
 10
791.86117674209606
 20
-1546.8864406141272
 10
791.86312947065494
 20
-1546.8882554918932
 42
-0.0248160564157384
 10
791.9793309779551
 20
-1547.0075300931014
 10
791.9814346113576
 20
-1547.0099154268064
 42
-0.0254109591468468
 10
792.08903982922345
 20
-1547.1452038127707
 10
792.09128785113762
 20
-1547.1483453611713
 42
-0.0255528488286142
 10
792.18873452993478
 20
-1547.3003724154053
 10
792.19106562985098
 20
-1547.304454027013
 42
-0.0252146793219331
 10
792.27684665586025
 20
-1547.4739562730106
 10
792.27914889501767
 20
-1547.479138354923
 42
-0.0244265635953549
 10
792.35180358877881
 20
-1547.6668849269684
 10
792.36104999024792
 20
-1547.6947503453084
 42
-0.0231319612902265
 10
792.40697276923959
 20
-1547.858051392109
 42
-0.0112130424350018
 10
792.44160879177764
 20
-1548.0242549922957
 10
792.44281131689036
 20
-1548.0307515791851
 42
-0.0210527881241543
 10
792.46849779226113
 20
-1548.2118072246267
 10
792.47200838708295
 20
-1548.2472127731735
 42
-0.0190029892419533
 10
792.48744986062763
 20
-1548.5007486194488
 10
792.48825983707161
 20
-1548.5362242338147
 42
-0.0137974553660043
 10
792.48671098423597
 20
-1548.861255640551
 10
792.48586552928055
 20
-1548.8873743851389
 42
-0.0081336634216403
 10
792.47100619405796
 20
-1549.1927218527403
 42
-0.0073526923575764
 10
792.4466976606833
 20
-1549.4974700970267
 10
792.4454362369006
 20
-1549.5108067716915
 42
-0.0066886138688622
 10
792.40970065085423
 20
-1549.8413928151872
 10
792.40804356138415
 20
-1549.8550144341802
 42
-0.0061359187354714
 10
792.36019295933465
 20
-1550.2117784142704
 10
792.3581554582604
 20
-1550.2256732171095
 42
-0.0056698610064416
 10
792.29750512749388
 20
-1550.6089517859452
 10
792.2950996941704
 20
-1550.6231109051782
 42
-0.005272107727085
 10
792.22096749337106
 20
-1551.0332382448541
 10
792.218204344529
 20
-1551.0476548802421
 42
-0.0049289272181923
 10
792.12991022642859
 20
-1551.4849633913659
 10
792.12679773174636
 20
-1551.4996322441802
 42
-0.0047415956709786
 10
792.02355974021327
 20
-1551.9644290015945
 10
791.98879152985432
 20
-1552.1142360969741
 42
-0.0084404470899679
 10
791.79877508627976
 20
-1552.8744601215153
 10
791.79264839829682
 20
-1552.8973242456586
 42
-0.0039635940257485
 10
791.57119471401336
 20
-1553.6983131099039
 10
791.55781791883328
 20
-1553.7452447264977
 42
-0.0072475040835872
 10
791.29037103096891
 20
-1554.6344644428923
 10
791.22015870414577
 20
-1554.856204792851
 42
-0.0051345458829248
 10
790.93339933208392
 20
-1555.7305299806712
 10
790.91187306531071
 20
-1555.793956247818
 42
-0.0019150016600873
 10
790.65633965844972
 20
-1556.5375053680273
 10
790.64987205405953
 20
-1556.5560928329312
 42
-0.0021524362751785
 10
790.40139400298972
 20
-1557.2604186546569
 10
790.39218358229652
 20
-1557.2861722329492
 42
-0.002433128681836
 10
790.15592832325729
 20
-1557.9367715410763
 10
790.14688037070471
 20
-1557.9613148474359
 42
-0.002744972179032
 10
789.9222657998713
 20
-1558.5604447263552
 10
789.91337579248693
 20
-1558.5837673161868
 42
-0.0031083229769449
 10
789.69983330586911
 20
-1559.1336913537871
 10
789.69109717419383
 20
-1559.155781069644
 42
-0.0035311343282522
 10
789.48805598860167
 20
-1559.6587641953749
 10
789.47947064945879
 20
-1559.6796069188736
 42
-0.0040245640951464
 10
789.28635884565961
 20
-1560.1379162414778
 10
789.27792273206126
 20
-1560.157495609539
 42
-0.0046015135852473
 10
789.09416643889278
 20
-1560.573400639192
 10
789.08588026106759
 20
-1560.5916977786371
 42
-0.0052768638269736
 10
788.91090274210887
 20
-1560.9674706629144
 10
788.90277053148463
 20
-1560.9844640014519
 42
-0.0060672675646183
 10
788.73599091871597
 20
-1561.3223796245718
 10
788.72802143823162
 20
-1561.3380448835746
 42
-0.0069904648873559
 10
788.56885304423304
 20
-1561.6403806902326
 10
788.56106164461869
 20
-1561.6546912394665
 42
-0.0080637022765589
 10
788.40890978427637
 20
-1561.9237265426132
 10
788.40132075164684
 20
-1561.9366544082111
 42
-0.0093006455664864
 10
788.25558007511358
 20
-1562.1746688067169
 10
788.24822940837043
 20
-1562.1861867758892
 42
-0.0107060778059427
 10
788.10828086493143
 20
-1562.3954570932692
 10
788.10121909665429
 20
-1562.4055426358316
 42
-0.0122723111418458
 10
787.96642537845378
 20
-1562.5883359653239
 10
787.9660991548958
 20
-1562.5887563531387
 42
-0.014183631962804
 10
787.82251755192556
 20
-1562.7633261109631
 10
787.81556979627601
 20
-1562.7713011112251
 42
-0.0175957477215477
 10
787.67566362823891
 20
-1562.9209219996328
 42
-0.0080466359676887
 10
787.52819986321117
 20
-1563.0632445277818
 10
787.48216531869127
 20
-1563.1062649658752
 42
-0.0269600260391059
 10
787.22888507270613
 20
-1563.3185882243861
 10
787.16231793640691
 20
-1563.3685396390115
 42
-0.0178362839752088
 10
786.9223734467555
 20
-1563.5355575652607
 10
786.91512847575564
 20
-1563.5402260774651
 42
-0.0174650732651283
 10
786.67879227831372
 20
-1563.6810870424247
 42
-0.0169240130158833
 10
786.43332603245221
 20
-1563.8053793022041
 10
786.3873398768983
 20
-1563.8267412577693
 42
-0.0318883036840445
 10
786.03698902127917
 20
-1563.9630795672792
 10
785.96862348611194
 20
-1563.9847801877554
 42
-0.0284435909901952
 10
785.5925733598225
 20
-1564.0809976232295
 10
785.55741519932099
 20
-1564.0878912190585
 42
-0.0243909341012817
 10
785.24397173840498
 20
-1564.1336122500882
 10
785.19369101163693
 20
-1564.1384577969895
 42
-0.0196639292933033
 10
784.97809543410654
 20
-1564.1507060825033
 10
784.9262713629339
 20
-1564.1516093432401
 42
-0.0100501510680216
 10
784.81384808127882
 20
-1564.151308944887
 10
784.78218821995529
 20
-1564.150587873002
 42
-0.0019752031133981
 10
784.73309588325344
 20
-1564.1492757127921
 10
784.7303355800268
 20
-1564.1491910209656
 42
0.0065378752008335
 10
784.6867590052766
 20
-1564.1484241297508
 42
-0.0167974694641047
 10
784.64322818234052
 20
-1564.1467642312243
 10
784.63914884308269
 20
-1564.1464712203297
 42
-0.0081283276294544
 10
784.58758904534943
 20
-1564.1419242266925
 10
784.57584947146552
 20
-1564.1406963091135
 42
-0.0126703440175148
 10
784.50113117567344
 20
-1564.1309615180423
 10
784.47834330799537
 20
-1564.1274032621268
 42
-0.0117852088432393
 10
784.3588043221614
 20
-1564.1058402669694
 10
784.30342387039991
 20
-1564.0944967267351
 42
-0.0251774592293742
 10
784.07657983139461
 20
-1564.0359987173031
 10
784.03186064153977
 20
-1564.0220318979666
 42
-0.0146525199879466
 10
783.8454676540025
 20
-1563.9577653707688
 42
-0.0166929435844955
 10
783.66348999787067
 20
-1563.8819582377118
 10
783.65883336660272
 20
-1563.8798333371001
 42
-0.0191684358437297
 10
783.4736497353573
 20
-1563.7865972533123
 10
783.47031714959644
 20
-1563.7847560057567
 42
-0.0221181781812849
 10
783.28700684569287
 20
-1563.6726225073851
 10
783.28465704168582
 20
-1563.671038209395
 42
-0.0254984685389955
 10
783.10836689130099
 20
-1563.5386270594256
 10
783.08588474359874
 20
-1563.5198747504892
 42
-0.0292492648805624
 10
782.96111580475554
 20
-1563.402781950846
 42
-0.0159048957495735
 10
782.8472758073051
 20
-1563.2747619592467
 10
782.84595701672606
 20
-1563.273180346227
 42
-0.0343813379560363
 10
782.74331975509961
 20
-1563.1313090204571
 10
782.71182822373896
 20
-1563.0808056283634
 42
-0.0369117275701369
 10
782.62593572184176
 20
-1562.917328387415
 42
-0.0191751379908697
 10
782.5587423362856
 20
-1562.7449237814114
 10
782.55697901252529
 20
-1562.7398304367341
 42
-0.0378178042228172
 10
782.50718429374092
 20
-1562.5508896606523
 10
782.50118899801134
 20
-1562.5183290424591
 42
-0.0184846046487527
 10
782.48047179871628
 20
-1562.3765762219109
 42
-0.0179866351308066
 10
782.47013879364283
 20
-1562.2336854088342
 10
782.47008235119688
 20
-1562.2321277222172
 42
-0.0085497186109237
 10
782.46865007009308
 20
-1562.1572545572074
 42
-0.0085497186109237
  0
ENDBLK
  5
61
100
AcDbEntity
  8
template
390
0
100
AcDbBlockEnd
  0
BLOCK
  5
62
100
AcDbEntity
  8
notes
390
0
100
AcDbBlockBegin
  2
*D3
 70
               1
 10
0.0
 20
0.0
 30
0.0
  3
*D3
  1

  0
LINE
  5
63
100
AcDbEntity
  8
0
370
              -2
390
0
  6
Continuous
 62
               0
100
AcDbLine
 10
-699.86611548744793
 20
109.50800279958067
 30
0.0
 11
-699.86611548744793
 21
189.57476091818259
 31
0.0
  0
LINE
  5
64
100
AcDbEntity
  8
0
370
              -2
390
0
  6
Continuous
 62
               0
100
AcDbLine
 10
-164.86611548744796
 20
-47.0
 30
0.0
 11
-164.86611548744796
 21
189.57476091818262
 31
0.0
  0
LINE
  5
65
100
AcDbEntity
  8
0
370
              -2
390
0
  6
Continuous
 62
               0
100
AcDbLine
 10
-699.86611548744793
 20
189.57476091818259
 30
0.0
 11
-164.86611548744796
 21
189.57476091818262
 31
0.0
  0
CIRCLE
  5
66
102
{ACAD_REACTORS
330
67
102
}
100
AcDbEntity
  8
0
370
              -2
390
0
  6
Continuous
 62
               0
100
AcDbCircle
 10
-699.86611548744793
 20
189.57476091818259
 30
0.0
 40
1.9998779296875
  0
HATCH
  5
67
100
AcDbEntity
  8
0
370
              -2
390
0
  6
Continuous
 62
               0
100
AcDbHatch
 10
0.0
 20
0.0
 30
0.0
210
0.0
220
0.0
230
1.0
  2
SOLID
 70
               1
 71
               1
 91
        1
 92
        1
 93
        1
 72
               2
 10
-699.86611548744793
 20
189.57476091818259
 40
1.9998779296875
 50
0.0
 51
360.0
 73
               0
 97
        1
330
66
 75
               0
 76
               1
 98
        1
 10
0.0
 20
0.0
  0
CIRCLE
  5
68
102
{ACAD_REACTORS
330
69
102
}
100
AcDbEntity
  8
0
370
              -2
390
0
  6
Continuous
 62
               0
100
AcDbCircle
 10
-164.86611548744796
 20
189.57476091818262
 30
0.0
 40
1.9998779296875
  0
HATCH
  5
69
100
AcDbEntity
  8
0
370
              -2
390
0
  6
Continuous
 62
               0
100
AcDbHatch
 10
0.0
 20
0.0
 30
0.0
210
0.0
220
0.0
230
1.0
  2
SOLID
 70
               1
 71
               1
 91
        1
 92
        1
 93
        1
 72
               2
 10
-164.86611548744796
 20
189.57476091818262
 40
1.9998779296875
 50
0.0
 51
360.0
 73
               0
 97
        1
330
68
 75
               0
 76
               1
 98
        1
 10
0.0
 20
0.0
  0
MTEXT
  5
6A
100
AcDbEntity
  8
0
390
0
 62
               0
100
AcDbMText
 10
-456.17861716962341
 20
223.45237810568261
 30
0.0
 40
24.432617187500004
 41
0.0
 71
               1
 72
               1
  1
535
  7
ＭＳ ゴシック
 73
               1
 44
0.7828267384257843
  0
POINT
  5
6B
100
AcDbEntity
  8
Defpoints
370
               0
390
0
 62
               0
100
AcDbPoint
 10
-164.86611548744796
 20
-72.0
 30
0.0
  0
POINT
  5
6C
100
AcDbEntity
  8
Defpoints
370
               0
390
0
 62
               0
100
AcDbPoint
 10
-699.86611548744793
 20
84.508002799580666
 30
0.0
  0
POINT
  5
6D
100
AcDbEntity
  8
Defpoints
370
               0
390
0
 62
               0
100
AcDbPoint
 10
-699.86611548744793
 20
189.57476091818259
 30
0.0
  0
ENDBLK
  5
6E
100
AcDbEntity
  8
notes
390
0
100
AcDbBlockEnd
  0
BLOCK
  5
6F
100
AcDbEntity
  8
notes
390
0
100
AcDbBlockBegin
  2
*D4
 70
               1
 10
0.0
 20
0.0
 30
0.0
  3
*D4
  1

  0
LINE
  5
70
100
AcDbEntity
  8
0
370
              -2
390
0
  6
Continuous
 62
               0
100
AcDbLine
 10
-724.86611548744793
 20
-812.47587723186268
 30
0.0
 11
-849.86611548748408
 21
-812.47587723186268
 31
0.0
  0
LINE
  5
71
100
AcDbEntity
  8
0
370
              -2
390
0
  6
Continuous
 62
               0
100
AcDbLine
 10
-724.86611548744793
 20
87.524122768137147
 30
0.0
 11
-849.86611548748408
 21
87.524122768137147
 31
0.0
  0
LINE
  5
72
100
AcDbEntity
  8
0
370
              -2
390
0
  6
Continuous
 62
               0
100
AcDbLine
 10
-849.86611548748408
 20
-812.47587723186268
 30
0.0
 11
-849.86611548748408
 21
87.524122768137147
 31
0.0
  0
CIRCLE
  5
73
102
{ACAD_REACTORS
330
74
102
}
100
AcDbEntity
  8
0
370
              -2
390
0
  6
Continuous
 62
               0
100
AcDbCircle
 10
-849.86611548748408
 20
-812.47587723186268
 30
0.0
 40
1.9998779296875
  0
HATCH
  5
74
100
AcDbEntity
  8
0
370
              -2
390
0
  6
Continuous
 62
               0
100
AcDbHatch
 10
0.0
 20
0.0
 30
0.0
210
0.0
220
0.0
230
1.0
  2
SOLID
 70
               1
 71
               1
 91
        1
 92
        1
 93
        1
 72
               2
 10
-849.86611548748408
 20
-812.47587723186268
 40
1.9998779296875
 50
0.0
 51
360.0
 73
               0
 97
        1
330
73
 75
               0
 76
               1
 98
        1
 10
0.0
 20
0.0
  0
CIRCLE
  5
75
102
{ACAD_REACTORS
330
76
102
}
100
AcDbEntity
  8
0
370
              -2
390
0
  6
Continuous
 62
               0
100
AcDbCircle
 10
-849.86611548748408
 20
87.524122768137147
 30
0.0
 40
1.9998779296875
  0
HATCH
  5
76
100
AcDbEntity
  8
0
370
              -2
390
0
  6
Continuous
 62
               0
100
AcDbHatch
 10
0.0
 20
0.0
 30
0.0
210
0.0
220
0.0
230
1.0
  2
SOLID
 70
               1
 71
               1
 91
        1
 92
        1
 93
        1
 72
               2
 10
-849.86611548748408
 20
87.524122768137147
 40
1.9998779296875
 50
0.0
 51
360.0
 73
               0
 97
        1
330
75
 75
               0
 76
               1
 98
        1
 10
0.0
 20
0.0
  0
MTEXT
  5
77
100
AcDbEntity
  8
0
390
0
 62
               0
100
AcDbMText
 10
-883.74373267498413
 20
-386.28837891403828
 30
0.0
 40
24.432617187500004
 41
0.0
 71
               1
 72
               1
  1
900
  7
ＭＳ ゴシック
 11
0.0
 21
1.0
 31
0.0
 73
               1
 44
0.7828267384257843
  0
POINT
  5
78
100
AcDbEntity
  8
Defpoints
370
               0
390
0
 62
               0
100
AcDbPoint
 10
-699.86611548744793
 20
87.524122768137147
 30
0.0
  0
POINT
  5
79
100
AcDbEntity
  8
Defpoints
370
               0
390
0
 62
               0
100
AcDbPoint
 10
-699.86611548744793
 20
-812.47587723186268
 30
0.0
  0
POINT
  5
7A
100
AcDbEntity
  8
Defpoints
370
               0
390
0
 62
               0
100
AcDbPoint
 10
-849.86611548748408
 20
-812.47587723186268
 30
0.0
  0
ENDBLK
  5
7B
100
AcDbEntity
  8
notes
390
0
100
AcDbBlockEnd
  0
BLOCK
  5
7C
100
AcDbEntity
  8
notes
390
0
100
AcDbBlockBegin
  2
*D5
 70
               1
 10
0.0
 20
0.0
 30
0.0
  3
*D5
  1

  0
LINE
  5
7D
100
AcDbEntity
  8
0
370
              -2
390
0
  6
Continuous
 62
               0
100
AcDbLine
 10
-699.86611548744793
 20
-834.50270129011369
 30
0.0
 11
-699.86611548744793
 21
-962.54318637123038
 31
0.0
  0
LINE
  5
7E
100
AcDbEntity
  8
0
370
              -2
390
0
  6
Continuous
 62
               0
100
AcDbLine
 10
-614.86611548744793
 20
-863.33997524868209
 30
0.0
 11
-614.86611548744793
 21
-962.54318637123038
 31
0.0
  0
LINE
  5
7F
100
AcDbEntity
  8
0
370
              -2
390
0
  6
Continuous
 62
               0
100
AcDbLine
 10
-699.86611548744793
 20
-962.54318637123038
 30
0.0
 11
-614.86611548744793
 21
-962.54318637123038
 31
0.0
  0
CIRCLE
  5
80
102
{ACAD_REACTORS
330
81
102
}
100
AcDbEntity
  8
0
370
              -2
390
0
  6
Continuous
 62
               0
100
AcDbCircle
 10
-699.86611548744793
 20
-962.54318637123038
 30
0.0
 40
1.9998779296875
  0
HATCH
  5
81
100
AcDbEntity
  8
0
370
              -2
390
0
  6
Continuous
 62
               0
100
AcDbHatch
 10
0.0
 20
0.0
 30
0.0
210
0.0
220
0.0
230
1.0
  2
SOLID
 70
               1
 71
               1
 91
        1
 92
        1
 93
        1
 72
               2
 10
-699.86611548744793
 20
-962.54318637123038
 40
1.9998779296875
 50
0.0
 51
360.0
 73
               0
 97
        1
330
80
 75
               0
 76
               1
 98
        1
 10
0.0
 20
0.0
  0
CIRCLE
  5
82
102
{ACAD_REACTORS
330
83
102
}
100
AcDbEntity
  8
0
370
              -2
390
0
  6
Continuous
 62
               0
100
AcDbCircle
 10
-614.86611548744793
 20
-962.54318637123038
 30
0.0
 40
1.9998779296875
  0
HATCH
  5
83
100
AcDbEntity
  8
0
370
              -2
390
0
  6
Continuous
 62
               0
100
AcDbHatch
 10
0.0
 20
0.0
 30
0.0
210
0.0
220
0.0
230
1.0
  2
SOLID
 70
               1
 71
               1
 91
        1
 92
        1
 93
        1
 72
               2
 10
-614.86611548744793
 20
-962.54318637123038
 40
1.9998779296875
 50
0.0
 51
360.0
 73
               0
 97
        1
330
82
 75
               0
 76
               1
 98
        1
 10
0.0
 20
0.0
  0
MTEXT
  5
84
100
AcDbEntity
  8
0
390
0
 62
               0
100
AcDbMText
 10
-673.24111548744793
 20
-928.66556918373044
 30
0.0
 40
24.432617187500004
 41
0.0
 71
               1
 72
               1
  1
85
  7
ＭＳ ゴシック
 73
               1
 44
0.7828267384257843
  0
POINT
  5
85
100
AcDbEntity
  8
Defpoints
370
               0
390
0
 62
               0
100
AcDbPoint
 10
-614.86611548744793
 20
-838.33997524868209
 30
0.0
  0
POINT
  5
86
100
AcDbEntity
  8
Defpoints
370
               0
390
0
 62
               0
100
AcDbPoint
 10
-699.86611548744793
 20
-809.50270129011369
 30
0.0
  0
POINT
  5
87
100
AcDbEntity
  8
Defpoints
370
               0
390
0
 62
               0
100
AcDbPoint
 10
-699.86611548744793
 20
-962.54318637123038
 30
0.0
  0
ENDBLK
  5
88
100
AcDbEntity
  8
notes
390
0
100
AcDbBlockEnd
  0
BLOCK
  5
89
100
AcDbEntity
  8
notes
390
0
100
AcDbBlockBegin
  2
*D6
 70
               1
 10
0.0
 20
0.0
 30
0.0
  3
*D6
  1

  0
LINE
  5
8A
100
AcDbEntity
  8
0
370
              -2
390
0
  6
Continuous
 62
               0
100
AcDbLine
 10
-614.86611548744793
 20
-839.89839443872575
 30
0.0
 11
-614.86611548744793
 21
-963.0
 31
0.0
  0
LINE
  5
8B
100
AcDbEntity
  8
0
370
              -2
390
0
  6
Continuous
 62
               0
100
AcDbLine
 10
-164.86611548744756
 20
-675.0
 30
0.0
 11
-164.86611548744756
 21
-963.0
 31
0.0
  0
LINE
  5
8C
100
AcDbEntity
  8
0
370
              -2
390
0
  6
Continuous
 62
               0
100
AcDbLine
 10
-614.86611548744793
 20
-963.0
 30
0.0
 11
-164.86611548744756
 21
-963.0
 31
0.0
  0
CIRCLE
  5
8D
102
{ACAD_REACTORS
330
8E
102
}
100
AcDbEntity
  8
0
370
              -2
390
0
  6
Continuous
 62
               0
100
AcDbCircle
 10
-614.86611548744793
 20
-963.0
 30
0.0
 40
1.9998779296875
  0
HATCH
  5
8E
100
AcDbEntity
  8
0
370
              -2
390
0
  6
Continuous
 62
               0
100
AcDbHatch
 10
0.0
 20
0.0
 30
0.0
210
0.0
220
0.0
230
1.0
  2
SOLID
 70
               1
 71
               1
 91
        1
 92
        1
 93
        1
 72
               2
 10
-614.86611548744793
 20
-963.0
 40
1.9998779296875
 50
0.0
 51
360.0
 73
               0
 97
        1
330
8D
 75
               0
 76
               1
 98
        1
 10
0.0
 20
0.0
  0
CIRCLE
  5
8F
102
{ACAD_REACTORS
330
90
102
}
100
AcDbEntity
  8
0
370
              -2
390
0
  6
Continuous
 62
               0
100
AcDbCircle
 10
-164.86611548744756
 20
-963.0
 30
0.0
 40
1.9998779296875
  0
HATCH
  5
90
100
AcDbEntity
  8
0
370
              -2
390
0
  6
Continuous
 62
               0
100
AcDbHatch
 10
0.0
 20
0.0
 30
0.0
210
0.0
220
0.0
230
1.0
  2
SOLID
 70
               1
 71
               1
 91
        1
 92
        1
 93
        1
 72
               2
 10
-164.86611548744756
 20
-963.0
 40
1.9998779296875
 50
0.0
 51
360.0
 73
               0
 97
        1
330
8F
 75
               0
 76
               1
 98
        1
 10
0.0
 20
0.0
  0
MTEXT
  5
91
100
AcDbEntity
  8
0
390
0
 62
               0
100
AcDbMText
 10
-413.67861716962318
 20
-929.12238281250006
 30
0.0
 40
24.432617187500004
 41
0.0
 71
               1
 72
               1
  1
450
  7
ＭＳ ゴシック
 73
               1
 44
0.7828267384257843
  0
POINT
  5
92
100
AcDbEntity
  8
Defpoints
370
               0
390
0
 62
               0
100
AcDbPoint
 10
-164.86611548744756
 20
-650.0
 30
0.0
  0
POINT
  5
93
100
AcDbEntity
  8
Defpoints
370
               0
390
0
 62
               0
100
AcDbPoint
 10
-614.86611548744793
 20
-814.89839443872586
 30
0.0
  0
POINT
  5
94
100
AcDbEntity
  8
Defpoints
370
               0
390
0
 62
               0
100
AcDbPoint
 10
-614.86611548744793
 20
-963.0
 30
0.0
  0
ENDBLK
  5
95
100
AcDbEntity
  8
notes
390
0
100
AcDbBlockEnd
  0
BLOCK
  5
96
100
AcDbEntity
  8
notes
390
0
100
AcDbBlockBegin
  2
*D7
 70
               1
 10
0.0
 20
0.0
 30
0.0
  3
*D7
  1

  0
LINE
  5
97
100
AcDbEntity
  8
0
370
              -2
390
0
  6
Continuous
 62
               0
100
AcDbLine
 10
350.30515515782042
 20
-517.23468803449339
 30
0.0
 11
204.32636983129888
 21
-517.23468803449339
 31
0.0
  0
LINE
  5
98
100
AcDbEntity
  8
0
370
              -2
390
0
  6
Continuous
 62
               0
100
AcDbLine
 10
350.30515515782042
 20
-207.23468803449384
 30
0.0
 11
204.32636983129888
 21
-207.23468803449384
 31
0.0
  0
LINE
  5
99
100
AcDbEntity
  8
0
370
              -2
390
0
  6
Continuous
 62
               0
100
AcDbLine
 10
204.32636983129888
 20
-517.23468803449339
 30
0.0
 11
204.32636983129888
 21
-207.23468803449384
 31
0.0
  0
CIRCLE
  5
9A
102
{ACAD_REACTORS
330
9B
102
}
100
AcDbEntity
  8
0
370
              -2
390
0
  6
Continuous
 62
               0
100
AcDbCircle
 10
204.32636983129888
 20
-517.23468803449339
 30
0.0
 40
1.9998779296875
  0
HATCH
  5
9B
100
AcDbEntity
  8
0
370
              -2
390
0
  6
Continuous
 62
               0
100
AcDbHatch
 10
0.0
 20
0.0
 30
0.0
210
0.0
220
0.0
230
1.0
  2
SOLID
 70
               1
 71
               1
 91
        1
 92
        1
 93
        1
 72
               2
 10
204.32636983129888
 20
-517.23468803449339
 40
1.9998779296875
 50
0.0
 51
360.0
 73
               0
 97
        1
330
9A
 75
               0
 76
               1
 98
        1
 10
0.0
 20
0.0
  0
CIRCLE
  5
9C
102
{ACAD_REACTORS
330
9D
102
}
100
AcDbEntity
  8
0
370
              -2
390
0
  6
Continuous
 62
               0
100
AcDbCircle
 10
204.32636983129888
 20
-207.23468803449384
 30
0.0
 40
1.9998779296875
  0
HATCH
  5
9D
100
AcDbEntity
  8
0
370
              -2
390
0
  6
Continuous
 62
               0
100
AcDbHatch
 10
0.0
 20
0.0
 30
0.0
210
0.0
220
0.0
230
1.0
  2
SOLID
 70
               1
 71
               1
 91
        1
 92
        1
 93
        1
 72
               2
 10
204.32636983129888
 20
-207.23468803449384
 40
1.9998779296875
 50
0.0
 51
360.0
 73
               0
 97
        1
330
9C
 75
               0
 76
               1
 98
        1
 10
0.0
 20
0.0
  0
MTEXT
  5
9E
100
AcDbEntity
  8
0
390
0
 62
               0
100
AcDbMText
 10
170.44875264379885
 20
-386.0471897166691
 30
0.0
 40
24.432617187500004
 41
0.0
 71
               1
 72
               1
  1
310
  7
ＭＳ ゴシック
 11
0.0
 21
1.0
 31
0.0
 73
               1
 44
0.7828267384257843
  0
POINT
  5
9F
100
AcDbEntity
  8
Defpoints
370
               0
390
0
 62
               0
100
AcDbPoint
 10
375.30515515782042
 20
-207.23468803449384
 30
0.0
  0
POINT
  5
A0
100
AcDbEntity
  8
Defpoints
370
               0
390
0
 62
               0
100
AcDbPoint
 10
375.30515515782042
 20
-517.23468803449339
 30
0.0
  0
POINT
  5
A1
100
AcDbEntity
  8
Defpoints
370
               0
390
0
 62
               0
100
AcDbPoint
 10
204.32636983129888
 20
-517.23468803449339
 30
0.0
  0
ENDBLK
  5
A2
100
AcDbEntity
  8
notes
390
0
100
AcDbBlockEnd
  0
BLOCK
  5
A3
100
AcDbEntity
  8
notes
390
0
100
AcDbBlockBegin
  2
*D8
 70
               1
 10
0.0
 20
0.0
 30
0.0
  3
*D8
  1

  0
LINE
  5
A4
100
AcDbEntity
  8
0
370
              -2
390
0
  6
Continuous
 62
               0
100
AcDbLine
 10
395.28462979277344
 20
-672.25521339954037
 30
0.0
 11
395.28462979277344
 21
-912.4758772318628
 31
0.0
  0
LINE
  5
A5
100
AcDbEntity
  8
0
370
              -2
390
0
  6
Continuous
 62
               0
100
AcDbLine
 10
305.26334036263415
 20
-830.46667517440233
 30
0.0
 11
305.26334036263415
 21
-912.4758772318628
 31
0.0
  0
LINE
  5
A6
100
AcDbEntity
  8
0
370
              -2
390
0
  6
Continuous
 62
               0
100
AcDbLine
 10
395.28462979277344
 20
-912.4758772318628
 30
0.0
 11
305.26334036263415
 21
-912.4758772318628
 31
0.0
  0
CIRCLE
  5
A7
102
{ACAD_REACTORS
330
A8
102
}
100
AcDbEntity
  8
0
370
              -2
390
0
  6
Continuous
 62
               0
100
AcDbCircle
 10
395.28462979277344
 20
-912.4758772318628
 30
0.0
 40
1.9998779296875
  0
HATCH
  5
A8
100
AcDbEntity
  8
0
370
              -2
390
0
  6
Continuous
 62
               0
100
AcDbHatch
 10
0.0
 20
0.0
 30
0.0
210
0.0
220
0.0
230
1.0
  2
SOLID
 70
               1
 71
               1
 91
        1
 92
        1
 93
        1
 72
               2
 10
395.28462979277344
 20
-912.4758772318628
 40
1.9998779296875
 50
0.0
 51
360.0
 73
               0
 97
        1
330
A7
 75
               0
 76
               1
 98
        1
 10
0.0
 20
0.0
  0
CIRCLE
  5
A9
102
{ACAD_REACTORS
330
AA
102
}
100
AcDbEntity
  8
0
370
              -2
390
0
  6
Continuous
 62
               0
100
AcDbCircle
 10
305.26334036263415
 20
-912.4758772318628
 30
0.0
 40
1.9998779296875
  0
HATCH
  5
AA
100
AcDbEntity
  8
0
370
              -2
390
0
  6
Continuous
 62
               0
100
AcDbHatch
 10
0.0
 20
0.0
 30
0.0
210
0.0
220
0.0
230
1.0
  2
SOLID
 70
               1
 71
               1
 91
        1
 92
        1
 93
        1
 72
               2
 10
305.26334036263415
 20
-912.4758772318628
 40
1.9998779296875
 50
0.0
 51
360.0
 73
               0
 97
        1
330
A9
 75
               0
 76
               1
 98
        1
 10
0.0
 20
0.0
  0
MTEXT
  5
AB
100
AcDbEntity
  8
0
390
0
 62
               0
100
AcDbMText
 10
334.39898507770386
 20
-878.59826004436286
 30
0.0
 40
24.432617187500004
 41
0.0
 71
               1
 72
               1
  1
90
  7
ＭＳ ゴシック
 73
               1
 44
0.7828267384257843
  0
POINT
  5
AC
100
AcDbEntity
  8
Defpoints
370
               0
390
0
 62
               0
100
AcDbPoint
 10
305.26334036263415
 20
-805.46667517440233
 30
0.0
  0
POINT
  5
AD
100
AcDbEntity
  8
Defpoints
370
               0
390
0
 62
               0
100
AcDbPoint
 10
395.28462979277344
 20
-647.25521339954037
 30
0.0
  0
POINT
  5
AE
100
AcDbEntity
  8
Defpoints
370
               0
390
0
 62
               0
100
AcDbPoint
 10
395.28462979277344
 20
-912.4758772318628
 30
0.0
  0
ENDBLK
  5
AF
100
AcDbEntity
  8
notes
390
0
100
AcDbBlockEnd
  0
BLOCK
  5
B0
100
AcDbEntity
  8
notes
390
0
100
AcDbBlockBegin
  2
*D9
 70
               1
 10
0.0
 20
0.0
 30
0.0
  3
*D9
  1

  0
LINE
  5
B1
100
AcDbEntity
  8
0
370
              -2
390
0
  6
Continuous
 62
               0
100
AcDbLine
 10
-237.7974228803416
 20
-772.48735515515273
 30
0.0
 11
-62.866115487470495
 21
-772.48735515515273
 31
0.0
  0
LINE
  5
B2
100
AcDbEntity
  8
0
370
              -2
390
0
  6
Continuous
 62
               0
100
AcDbLine
 10
-237.7974228803416
 20
47.49456590572629
 30
0.0
 11
-62.866115487470495
 21
47.49456590572629
 31
0.0
  0
LINE
  5
B3
100
AcDbEntity
  8
0
370
              -2
390
0
  6
Continuous
 62
               0
100
AcDbLine
 10
-62.866115487470495
 20
-772.48735515515273
 30
0.0
 11
-62.866115487470495
 21
47.49456590572629
 31
0.0
  0
CIRCLE
  5
B4
102
{ACAD_REACTORS
330
B5
102
}
100
AcDbEntity
  8
0
370
              -2
390
0
  6
Continuous
 62
               0
100
AcDbCircle
 10
-62.866115487470495
 20
-772.48735515515273
 30
0.0
 40
1.9998779296875
  0
HATCH
  5
B5
100
AcDbEntity
  8
0
370
              -2
390
0
  6
Continuous
 62
               0
100
AcDbHatch
 10
0.0
 20
0.0
 30
0.0
210
0.0
220
0.0
230
1.0
  2
SOLID
 70
               1
 71
               1
 91
        1
 92
        1
 93
        1
 72
               2
 10
-62.866115487470495
 20
-772.48735515515273
 40
1.9998779296875
 50
0.0
 51
360.0
 73
               0
 97
        1
330
B4
 75
               0
 76
               1
 98
        1
 10
0.0
 20
0.0
  0
CIRCLE
  5
B6
102
{ACAD_REACTORS
330
B7
102
}
100
AcDbEntity
  8
0
370
              -2
390
0
  6
Continuous
 62
               0
100
AcDbCircle
 10
-62.866115487470495
 20
47.49456590572629
 30
0.0
 40
1.9998779296875
  0
HATCH
  5
B7
100
AcDbEntity
  8
0
370
              -2
390
0
  6
Continuous
 62
               0
100
AcDbHatch
 10
0.0
 20
0.0
 30
0.0
210
0.0
220
0.0
230
1.0
  2
SOLID
 70
               1
 71
               1
 91
        1
 92
        1
 93
        1
 72
               2
 10
-62.866115487470495
 20
47.49456590572629
 40
1.9998779296875
 50
0.0
 51
360.0
 73
               0
 97
        1
330
B6
 75
               0
 76
               1
 98
        1
 10
0.0
 20
0.0
  0
MTEXT
  5
B8
100
AcDbEntity
  8
0
390
0
 62
               0
100
AcDbMText
 10
-96.743732674970516
 20
-386.30889630688876
 30
0.0
 40
24.432617187500004
 41
0.0
 71
               1
 72
               1
  1
820
  7
ＭＳ ゴシック
 11
0.0
 21
1.0
 31
0.0
 73
               1
 44
0.7828267384257843
  0
POINT
  5
B9
100
AcDbEntity
  8
Defpoints
370
               0
390
0
 62
               0
100
AcDbPoint
 10
-262.79742288034163
 20
47.49456590572629
 30
0.0
  0
POINT
  5
BA
100
AcDbEntity
  8
Defpoints
370
               0
390
0
 62
               0
100
AcDbPoint
 10
-262.79742288034163
 20
-772.48735515515273
 30
0.0
  0
POINT
  5
BB
100
AcDbEntity
  8
Defpoints
370
               0
390
0
 62
               0
100
AcDbPoint
 10
-62.866115487470495
 20
-772.48735515515273
 30
0.0
  0
ENDBLK
  5
BC
100
AcDbEntity
  8
notes
390
0
100
AcDbBlockEnd
  0
BLOCK
  5
BD
100
AcDbEntity
  8
notes
390
0
100
AcDbBlockBegin
  2
*D10
 70
               1
 10
0.0
 20
0.0
 30
0.0
  3
*D10
  1

  0
LINE
  5
BE
100
AcDbEntity
  8
0
370
              -2
390
0
  6
Continuous
 62
               0
100
AcDbLine
 10
305.30508040115956
 20
102.46072064729228
 30
0.0
 11
305.30508040115956
 21
185.45231733310357
 31
0.0
  0
LINE
  5
BF
100
AcDbEntity
  8
0
370
              -2
390
0
  6
Continuous
 62
               0
100
AcDbLine
 10
730.30504896306547
 20
15.663620401787256
 30
0.0
 11
730.30504896306547
 21
185.45231733310354
 31
0.0
  0
LINE
  5
C0
100
AcDbEntity
  8
0
370
              -2
390
0
  6
Continuous
 62
               0
100
AcDbLine
 10
305.30508040115956
 20
185.45231733310357
 30
0.0
 11
730.30504896306547
 21
185.45231733310354
 31
0.0
  0
CIRCLE
  5
C1
102
{ACAD_REACTORS
330
C2
102
}
100
AcDbEntity
  8
0
370
              -2
390
0
  6
Continuous
 62
               0
100
AcDbCircle
 10
305.30508040115956
 20
185.45231733310357
 30
0.0
 40
1.9998779296875
  0
HATCH
  5
C2
100
AcDbEntity
  8
0
370
              -2
390
0
  6
Continuous
 62
               0
100
AcDbHatch
 10
0.0
 20
0.0
 30
0.0
210
0.0
220
0.0
230
1.0
  2
SOLID
 70
               1
 71
               1
 91
        1
 92
        1
 93
        1
 72
               2
 10
305.30508040115956
 20
185.45231733310357
 40
1.9998779296875
 50
0.0
 51
360.0
 73
               0
 97
        1
330
C1
 75
               0
 76
               1
 98
        1
 10
0.0
 20
0.0
  0
CIRCLE
  5
C3
102
{ACAD_REACTORS
330
C4
102
}
100
AcDbEntity
  8
0
370
              -2
390
0
  6
Continuous
 62
               0
100
AcDbCircle
 10
730.30504896306547
 20
185.45231733310354
 30
0.0
 40
1.9998779296875
  0
HATCH
  5
C4
100
AcDbEntity
  8
0
370
              -2
390
0
  6
Continuous
 62
               0
100
AcDbHatch
 10
0.0
 20
0.0
 30
0.0
210
0.0
220
0.0
230
1.0
  2
SOLID
 70
               1
 71
               1
 91
        1
 92
        1
 93
        1
 72
               2
 10
730.30504896306547
 20
185.45231733310354
 40
1.9998779296875
 50
0.0
 51
360.0
 73
               0
 97
        1
330
C3
 75
               0
 76
               1
 98
        1
 10
0.0
 20
0.0
  0
MTEXT
  5
C5
100
AcDbEntity
  8
0
390
0
 62
               0
100
AcDbMText
 10
493.99256299993692
 20
219.32993452060356
 30
0.0
 40
24.432617187500004
 41
0.0
 71
               1
 72
               1
  1
425
  7
ＭＳ ゴシック
 73
               1
 44
0.7828267384257843
  0
POINT
  5
C6
100
AcDbEntity
  8
Defpoints
370
               0
390
0
 62
               0
100
AcDbPoint
 10
730.30504896306547
 20
-9.3363795982127442
 30
0.0
  0
POINT
  5
C7
100
AcDbEntity
  8
Defpoints
370
               0
390
0
 62
               0
100
AcDbPoint
 10
305.30508040115956
 20
77.460720647292277
 30
0.0
  0
POINT
  5
C8
100
AcDbEntity
  8
Defpoints
370
               0
390
0
 62
               0
100
AcDbPoint
 10
305.30508040115956
 20
185.45231733310357
 30
0.0
  0
ENDBLK
  5
C9
100
AcDbEntity
  8
notes
390
0
100
AcDbBlockEnd
  0
BLOCK
  5
CA
100
AcDbEntity
  8
notes
390
0
100
AcDbBlockBegin
  2
*D11
 70
               1
 10
0.0
 20
0.0
 30
0.0
  3
*D11
  1

  0
LINE
  5
CB
100
AcDbEntity
  8
0
370
              -2
390
0
  6
Continuous
 62
               0
100
AcDbLine
 10
-572.86608094679593
 20
-835.57791353358016
 30
0.0
 11
-572.86608094679593
 21
-912.47587723186302
 31
0.0
  0
LINE
  5
CC
100
AcDbEntity
  8
0
370
              -2
390
0
  6
Continuous
 62
               0
100
AcDbLine
 10
-202.86615322946025
 20
-740.55893410486624
 30
0.0
 11
-202.86615322946025
 21
-912.47587723186302
 31
0.0
  0
LINE
  5
CD
100
AcDbEntity
  8
0
370
              -2
390
0
  6
Continuous
 62
               0
100
AcDbLine
 10
-572.86608094679593
 20
-912.47587723186302
 30
0.0
 11
-202.86615322946025
 21
-912.47587723186302
 31
0.0
  0
CIRCLE
  5
CE
102
{ACAD_REACTORS
330
CF
102
}
100
AcDbEntity
  8
0
370
              -2
390
0
  6
Continuous
 62
               0
100
AcDbCircle
 10
-572.86608094679593
 20
-912.47587723186302
 30
0.0
 40
1.9998779296875
  0
HATCH
  5
CF
100
AcDbEntity
  8
0
370
              -2
390
0
  6
Continuous
 62
               0
100
AcDbHatch
 10
0.0
 20
0.0
 30
0.0
210
0.0
220
0.0
230
1.0
  2
SOLID
 70
               1
 71
               1
 91
        1
 92
        1
 93
        1
 72
               2
 10
-572.86608094679593
 20
-912.47587723186302
 40
1.9998779296875
 50
0.0
 51
360.0
 73
               0
 97
        1
330
CE
 75
               0
 76
               1
 98
        1
 10
0.0
 20
0.0
  0
CIRCLE
  5
D0
102
{ACAD_REACTORS
330
D1
102
}
100
AcDbEntity
  8
0
370
              -2
390
0
  6
Continuous
 62
               0
100
AcDbCircle
 10
-202.86615322946025
 20
-912.47587723186302
 30
0.0
 40
1.9998779296875
  0
HATCH
  5
D1
100
AcDbEntity
  8
0
370
              -2
390
0
  6
Continuous
 62
               0
100
AcDbHatch
 10
0.0
 20
0.0
 30
0.0
210
0.0
220
0.0
230
1.0
  2
SOLID
 70
               1
 71
               1
 91
        1
 92
        1
 93
        1
 72
               2
 10
-202.86615322946025
 20
-912.47587723186302
 40
1.9998779296875
 50
0.0
 51
360.0
 73
               0
 97
        1
330
D0
 75
               0
 76
               1
 98
        1
 10
0.0
 20
0.0
  0
MTEXT
  5
D2
100
AcDbEntity
  8
0
390
0
 62
               0
100
AcDbMText
 10
-411.67861877030361
 20
-878.59826004436309
 30
0.0
 40
24.432617187500004
 41
0.0
 71
               1
 72
               1
  1
370
  7
ＭＳ ゴシック
 73
               1
 44
0.7828267384257843
  0
POINT
  5
D3
100
AcDbEntity
  8
Defpoints
370
               0
390
0
 62
               0
100
AcDbPoint
 10
-202.86615322946025
 20
-715.55893410486624
 30
0.0
  0
POINT
  5
D4
100
AcDbEntity
  8
Defpoints
370
               0
390
0
 62
               0
100
AcDbPoint
 10
-572.86608094679593
 20
-810.57791353358027
 30
0.0
  0
POINT
  5
D5
100
AcDbEntity
  8
Defpoints
370
               0
390
0
 62
               0
100
AcDbPoint
 10
-572.86608094679593
 20
-912.47587723186302
 30
0.0
  0
ENDBLK
  5
D6
100
AcDbEntity
  8
notes
390
0
100
AcDbBlockEnd
  0
BLOCK
  5
D7
100
AcDbEntity
  8
notes
390
0
100
AcDbBlockBegin
  2
*D12
 70
               1
 10
0.0
 20
0.0
 30
0.0
  3
*D12
  1

  0
LINE
  5
D8
100
AcDbEntity
  8
0
370
              -2
390
0
  6
Continuous
 62
               0
100
AcDbLine
 10
-693.36611548749079
 20
-264.07791353358039
 30
0.0
 11
-799.86611548748408
 21
-264.07791353358039
 31
0.0
  0
LINE
  5
D9
100
AcDbEntity
  8
0
370
              -2
390
0
  6
Continuous
 62
               0
100
AcDbLine
 10
-693.36611548749079
 20
-364.07791353358016
 30
0.0
 11
-799.86611548748408
 21
-364.07791353358016
 31
0.0
  0
LINE
  5
DA
100
AcDbEntity
  8
0
370
              -2
390
0
  6
Continuous
 62
               0
100
AcDbLine
 10
-799.86611548748408
 20
-264.07791353358039
 30
0.0
 11
-799.86611548748408
 21
-364.07791353358016
 31
0.0
  0
CIRCLE
  5
DB
102
{ACAD_REACTORS
330
DC
102
}
100
AcDbEntity
  8
0
370
              -2
390
0
  6
Continuous
 62
               0
100
AcDbCircle
 10
-799.86611548748408
 20
-264.07791353358039
 30
0.0
 40
1.9998779296875
  0
HATCH
  5
DC
100
AcDbEntity
  8
0
370
              -2
390
0
  6
Continuous
 62
               0
100
AcDbHatch
 10
0.0
 20
0.0
 30
0.0
210
0.0
220
0.0
230
1.0
  2
SOLID
 70
               1
 71
               1
 91
        1
 92
        1
 93
        1
 72
               2
 10
-799.86611548748408
 20
-264.07791353358039
 40
1.9998779296875
 50
0.0
 51
360.0
 73
               0
 97
        1
330
DB
 75
               0
 76
               1
 98
        1
 10
0.0
 20
0.0
  0
CIRCLE
  5
DD
102
{ACAD_REACTORS
330
DE
102
}
100
AcDbEntity
  8
0
370
              -2
390
0
  6
Continuous
 62
               0
100
AcDbCircle
 10
-799.86611548748408
 20
-364.07791353358016
 30
0.0
 40
1.9998779296875
  0
HATCH
  5
DE
100
AcDbEntity
  8
0
370
              -2
390
0
  6
Continuous
 62
               0
100
AcDbHatch
 10
0.0
 20
0.0
 30
0.0
210
0.0
220
0.0
230
1.0
  2
SOLID
 70
               1
 71
               1
 91
        1
 92
        1
 93
        1
 72
               2
 10
-799.86611548748408
 20
-364.07791353358016
 40
1.9998779296875
 50
0.0
 51
360.0
 73
               0
 97
        1
330
DD
 75
               0
 76
               1
 98
        1
 10
0.0
 20
0.0
  0
MTEXT
  5
DF
100
AcDbEntity
  8
0
390
0
 62
               0
100
AcDbMText
 10
-833.74373267498413
 20
-337.89041521575575
 30
0.0
 40
24.432617187500004
 41
0.0
 71
               1
 72
               1
  1
100
  7
ＭＳ ゴシック
 11
0.0
 21
1.0
 31
0.0
 73
               1
 44
0.7828267384257843
  0
POINT
  5
E0
100
AcDbEntity
  8
Defpoints
370
               0
390
0
 62
               0
100
AcDbPoint
 10
-668.36611548749079
 20
-364.07791353358016
 30
0.0
  0
POINT
  5
E1
100
AcDbEntity
  8
Defpoints
370
               0
390
0
 62
               0
100
AcDbPoint
 10
-668.36611548749079
 20
-264.07791353358039
 30
0.0
  0
POINT
  5
E2
100
AcDbEntity
  8
Defpoints
370
               0
390
0
 62
               0
100
AcDbPoint
 10
-799.86611548748408
 20
-264.07791353358039
 30
0.0
  0
ENDBLK
  5
E3
100
AcDbEntity
  8
notes
390
0
100
AcDbBlockEnd
  0
BLOCK
  5
E4
100
AcDbEntity
  8
notes
390
0
100
AcDbBlockBegin
  2
*D13
 70
               1
 10
0.0
 20
0.0
 30
0.0
  3
*D13
  1

  0
LINE
  5
E5
100
AcDbEntity
  8
0
370
              -2
390
0
  6
Continuous
 62
               0
100
AcDbLine
 10
-693.36611548749079
 20
-364.07791353358016
 30
0.0
 11
-799.86611548748408
 21
-364.07791353358016
 31
0.0
  0
LINE
  5
E6
100
AcDbEntity
  8
0
370
              -2
390
0
  6
Continuous
 62
               0
100
AcDbLine
 10
-693.36611548749079
 20
-464.07791353358016
 30
0.0
 11
-799.86611548748408
 21
-464.07791353358016
 31
0.0
  0
LINE
  5
E7
100
AcDbEntity
  8
0
370
              -2
390
0
  6
Continuous
 62
               0
100
AcDbLine
 10
-799.86611548748408
 20
-364.07791353358016
 30
0.0
 11
-799.86611548748408
 21
-464.07791353358016
 31
0.0
  0
CIRCLE
  5
E8
102
{ACAD_REACTORS
330
E9
102
}
100
AcDbEntity
  8
0
370
              -2
390
0
  6
Continuous
 62
               0
100
AcDbCircle
 10
-799.86611548748408
 20
-364.07791353358016
 30
0.0
 40
1.9998779296875
  0
HATCH
  5
E9
100
AcDbEntity
  8
0
370
              -2
390
0
  6
Continuous
 62
               0
100
AcDbHatch
 10
0.0
 20
0.0
 30
0.0
210
0.0
220
0.0
230
1.0
  2
SOLID
 70
               1
 71
               1
 91
        1
 92
        1
 93
        1
 72
               2
 10
-799.86611548748408
 20
-364.07791353358016
 40
1.9998779296875
 50
0.0
 51
360.0
 73
               0
 97
        1
330
E8
 75
               0
 76
               1
 98
        1
 10
0.0
 20
0.0
  0
CIRCLE
  5
EA
102
{ACAD_REACTORS
330
EB
102
}
100
AcDbEntity
  8
0
370
              -2
390
0
  6
Continuous
 62
               0
100
AcDbCircle
 10
-799.86611548748408
 20
-464.07791353358016
 30
0.0
 40
1.9998779296875
  0
HATCH
  5
EB
100
AcDbEntity
  8
0
370
              -2
390
0
  6
Continuous
 62
               0
100
AcDbHatch
 10
0.0
 20
0.0
 30
0.0
210
0.0
220
0.0
230
1.0
  2
SOLID
 70
               1
 71
               1
 91
        1
 92
        1
 93
        1
 72
               2
 10
-799.86611548748408
 20
-464.07791353358016
 40
1.9998779296875
 50
0.0
 51
360.0
 73
               0
 97
        1
330
EA
 75
               0
 76
               1
 98
        1
 10
0.0
 20
0.0
  0
MTEXT
  5
EC
100
AcDbEntity
  8
0
390
0
 62
               0
100
AcDbMText
 10
-833.74373267498413
 20
-437.89041521575564
 30
0.0
 40
24.432617187500004
 41
0.0
 71
               1
 72
               1
  1
100
  7
ＭＳ ゴシック
 11
0.0
 21
1.0
 31
0.0
 73
               1
 44
0.7828267384257843
  0
POINT
  5
ED
100
AcDbEntity
  8
Defpoints
370
               0
390
0
 62
               0
100
AcDbPoint
 10
-668.36611548749079
 20
-464.07791353358016
 30
0.0
  0
POINT
  5
EE
100
AcDbEntity
  8
Defpoints
370
               0
390
0
 62
               0
100
AcDbPoint
 10
-668.36611548749079
 20
-364.07791353358016
 30
0.0
  0
POINT
  5
EF
100
AcDbEntity
  8
Defpoints
370
               0
390
0
 62
               0
100
AcDbPoint
 10
-799.86611548748408
 20
-364.07791353358016
 30
0.0
  0
ENDBLK
  5
F0
100
AcDbEntity
  8
notes
390
0
100
AcDbBlockEnd
  0
BLOCK
  5
F1
100
AcDbEntity
  8
notes
390
0
100
AcDbBlockBegin
  2
*D14
 70
               1
 10
0.0
 20
0.0
 30
0.0
  3
*D14
  1

  0
LINE
  5
F2
100
AcDbEntity
  8
0
370
              -2
390
0
  6
Continuous
 62
               0
100
AcDbLine
 10
755.30508028459803
 20
12.497527138855759
 30
0.0
 11
851.30508040115944
 21
12.497527138855759
 31
0.0
  0
LINE
  5
F3
100
AcDbEntity
  8
0
370
              -2
390
0
  6
Continuous
 62
               0
100
AcDbLine
 10
755.30508028459803
 20
-737.50247286114416
 30
0.0
 11
851.30508040115944
 21
-737.50247286114416
 31
0.0
  0
LINE
  5
F4
100
AcDbEntity
  8
0
370
              -2
390
0
  6
Continuous
 62
               0
100
AcDbLine
 10
851.30508040115944
 20
12.497527138855759
 30
0.0
 11
851.30508040115944
 21
-737.50247286114416
 31
0.0
  0
CIRCLE
  5
F5
102
{ACAD_REACTORS
330
F6
102
}
100
AcDbEntity
  8
0
370
              -2
390
0
  6
Continuous
 62
               0
100
AcDbCircle
 10
851.30508040115944
 20
12.497527138855759
 30
0.0
 40
1.9998779296875
  0
HATCH
  5
F6
100
AcDbEntity
  8
0
370
              -2
390
0
  6
Continuous
 62
               0
100
AcDbHatch
 10
0.0
 20
0.0
 30
0.0
210
0.0
220
0.0
230
1.0
  2
SOLID
 70
               1
 71
               1
 91
        1
 92
        1
 93
        1
 72
               2
 10
851.30508040115944
 20
12.497527138855759
 40
1.9998779296875
 50
0.0
 51
360.0
 73
               0
 97
        1
330
F5
 75
               0
 76
               1
 98
        1
 10
0.0
 20
0.0
  0
CIRCLE
  5
F7
102
{ACAD_REACTORS
330
F8
102
}
100
AcDbEntity
  8
0
370
              -2
390
0
  6
Continuous
 62
               0
100
AcDbCircle
 10
851.30508040115944
 20
-737.50247286114416
 30
0.0
 40
1.9998779296875
  0
HATCH
  5
F8
100
AcDbEntity
  8
0
370
              -2
390
0
  6
Continuous
 62
               0
100
AcDbHatch
 10
0.0
 20
0.0
 30
0.0
210
0.0
220
0.0
230
1.0
  2
SOLID
 70
               1
 71
               1
 91
        1
 92
        1
 93
        1
 72
               2
 10
851.30508040115944
 20
-737.50247286114416
 40
1.9998779296875
 50
0.0
 51
360.0
 73
               0
 97
        1
330
F7
 75
               0
 76
               1
 98
        1
 10
0.0
 20
0.0
  0
MTEXT
  5
F9
100
AcDbEntity
  8
0
390
0
 62
               0
100
AcDbMText
 10
817.42746321365939
 20
-386.31497454331964
 30
0.0
 40
24.432617187500004
 41
0.0
 71
               1
 72
               1
  1
750
  7
ＭＳ ゴシック
 11
0.0
 21
1.0
 31
0.0
 73
               1
 44
0.7828267384257843
  0
POINT
  5
FA
100
AcDbEntity
  8
Defpoints
370
               0
390
0
 62
               0
100
AcDbPoint
 10
730.30508028459803
 20
-737.50247286114416
 30
0.0
  0
POINT
  5
FB
100
AcDbEntity
  8
Defpoints
370
               0
390
0
 62
               0
100
AcDbPoint
 10
730.30508028459803
 20
12.497527138855759
 30
0.0
  0
POINT
  5
FC
100
AcDbEntity
  8
Defpoints
370
               0
390
0
 62
               0
100
AcDbPoint
 10
851.30508040115944
 20
12.497527138855759
 30
0.0
  0
ENDBLK
  5
FD
100
AcDbEntity
  8
notes
390
0
100
AcDbBlockEnd
  0
BLOCK
  5
FE
100
AcDbEntity
  8
notes
390
0
100
AcDbBlockBegin
  2
*D15
 70
               1
 10
0.0
 20
0.0
 30
0.0
  3
*D15
  1

  0
LINE
  5
FF
100
AcDbEntity
  8
0
370
              -2
390
0
  6
Continuous
 62
               0
100
AcDbLine
 10
350.30515515782042
 20
-207.23468803449384
 30
0.0
 11
204.32636983129888
 21
-207.23468803449384
 31
0.0
  0
LINE
  5
100
100
AcDbEntity
  8
0
370
              -2
390
0
  6
Continuous
 62
               0
100
AcDbLine
 10
350.30515515782042
 20
-97.234688034493843
 30
0.0
 11
204.32636983129888
 21
-97.234688034493843
 31
0.0
  0
LINE
  5
101
100
AcDbEntity
  8
0
370
              -2
390
0
  6
Continuous
 62
               0
100
AcDbLine
 10
204.32636983129888
 20
-207.23468803449384
 30
0.0
 11
204.32636983129888
 21
-97.234688034493843
 31
0.0
  0
CIRCLE
  5
102
102
{ACAD_REACTORS
330
103
102
}
100
AcDbEntity
  8
0
370
              -2
390
0
  6
Continuous
 62
               0
100
AcDbCircle
 10
204.32636983129888
 20
-207.23468803449384
 30
0.0
 40
1.9998779296875
  0
HATCH
  5
103
100
AcDbEntity
  8
0
370
              -2
390
0
  6
Continuous
 62
               0
100
AcDbHatch
 10
0.0
 20
0.0
 30
0.0
210
0.0
220
0.0
230
1.0
  2
SOLID
 70
               1
 71
               1
 91
        1
 92
        1
 93
        1
 72
               2
 10
204.32636983129888
 20
-207.23468803449384
 40
1.9998779296875
 50
0.0
 51
360.0
 73
               0
 97
        1
330
102
 75
               0
 76
               1
 98
        1
 10
0.0
 20
0.0
  0
CIRCLE
  5
104
102
{ACAD_REACTORS
330
105
102
}
100
AcDbEntity
  8
0
370
              -2
390
0
  6
Continuous
 62
               0
100
AcDbCircle
 10
204.32636983129888
 20
-97.234688034493843
 30
0.0
 40
1.9998779296875
  0
HATCH
  5
105
100
AcDbEntity
  8
0
370
              -2
390
0
  6
Continuous
 62
               0
100
AcDbHatch
 10
0.0
 20
0.0
 30
0.0
210
0.0
220
0.0
230
1.0
  2
SOLID
 70
               1
 71
               1
 91
        1
 92
        1
 93
        1
 72
               2
 10
204.32636983129888
 20
-97.234688034493843
 40
1.9998779296875
 50
0.0
 51
360.0
 73
               0
 97
        1
330
104
 75
               0
 76
               1
 98
        1
 10
0.0
 20
0.0
  0
MTEXT
  5
106
100
AcDbEntity
  8
0
390
0
 62
               0
100
AcDbMText
 10
170.44875264379885
 20
-176.04718971666938
 30
0.0
 40
24.432617187500004
 41
0.0
 71
               1
 72
               1
  1
110
  7
ＭＳ ゴシック
 11
0.0
 21
1.0
 31
0.0
 73
               1
 44
0.7828267384257843
  0
POINT
  5
107
100
AcDbEntity
  8
Defpoints
370
               0
390
0
 62
               0
100
AcDbPoint
 10
375.30515515782042
 20
-97.234688034493843
 30
0.0
  0
POINT
  5
108
100
AcDbEntity
  8
Defpoints
370
               0
390
0
 62
               0
100
AcDbPoint
 10
375.30515515782042
 20
-207.23468803449384
 30
0.0
  0
POINT
  5
109
100
AcDbEntity
  8
Defpoints
370
               0
390
0
 62
               0
100
AcDbPoint
 10
204.32636983129888
 20
-207.23468803449384
 30
0.0
  0
ENDBLK
  5
10A
100
AcDbEntity
  8
notes
390
0
100
AcDbBlockEnd
  0
BLOCK
  5
10B
100
AcDbEntity
  8
notes
390
0
100
AcDbBlockBegin
  2
*D16
 70
               1
 10
0.0
 20
0.0
 30
0.0
  3
*D16
  1

  0
LINE
  5
10C
100
AcDbEntity
  8
0
370
              -2
390
0
  6
Continuous
 62
               0
100
AcDbLine
 10
350.30515515782042
 20
-517.23468803449339
 30
0.0
 11
204.32636983129888
 21
-517.23468803449339
 31
0.0
  0
LINE
  5
10D
100
AcDbEntity
  8
0
370
              -2
390
0
  6
Continuous
 62
               0
100
AcDbLine
 10
350.30515515782042
 20
-627.23468803449339
 30
0.0
 11
204.32636983129888
 21
-627.23468803449339
 31
0.0
  0
LINE
  5
10E
100
AcDbEntity
  8
0
370
              -2
390
0
  6
Continuous
 62
               0
100
AcDbLine
 10
204.32636983129888
 20
-517.23468803449339
 30
0.0
 11
204.32636983129888
 21
-627.23468803449339
 31
0.0
  0
CIRCLE
  5
10F
102
{ACAD_REACTORS
330
110
102
}
100
AcDbEntity
  8
0
370
              -2
390
0
  6
Continuous
 62
               0
100
AcDbCircle
 10
204.32636983129888
 20
-517.23468803449339
 30
0.0
 40
1.9998779296875
  0
HATCH
  5
110
100
AcDbEntity
  8
0
370
              -2
390
0
  6
Continuous
 62
               0
100
AcDbHatch
 10
0.0
 20
0.0
 30
0.0
210
0.0
220
0.0
230
1.0
  2
SOLID
 70
               1
 71
               1
 91
        1
 92
        1
 93
        1
 72
               2
 10
204.32636983129888
 20
-517.23468803449339
 40
1.9998779296875
 50
0.0
 51
360.0
 73
               0
 97
        1
330
10F
 75
               0
 76
               1
 98
        1
 10
0.0
 20
0.0
  0
CIRCLE
  5
111
102
{ACAD_REACTORS
330
112
102
}
100
AcDbEntity
  8
0
370
              -2
390
0
  6
Continuous
 62
               0
100
AcDbCircle
 10
204.32636983129888
 20
-627.23468803449339
 30
0.0
 40
1.9998779296875
  0
HATCH
  5
112
100
AcDbEntity
  8
0
370
              -2
390
0
  6
Continuous
 62
               0
100
AcDbHatch
 10
0.0
 20
0.0
 30
0.0
210
0.0
220
0.0
230
1.0
  2
SOLID
 70
               1
 71
               1
 91
        1
 92
        1
 93
        1
 72
               2
 10
204.32636983129888
 20
-627.23468803449339
 40
1.9998779296875
 50
0.0
 51
360.0
 73
               0
 97
        1
330
111
 75
               0
 76
               1
 98
        1
 10
0.0
 20
0.0
  0
MTEXT
  5
113
100
AcDbEntity
  8
0
390
0
 62
               0
100
AcDbMText
 10
170.44875264379885
 20
-596.04718971666887
 30
0.0
 40
24.432617187500004
 41
0.0
 71
               1
 72
               1
  1
110
  7
ＭＳ ゴシック
 11
0.0
 21
1.0
 31
0.0
 73
               1
 44
0.7828267384257843
  0
POINT
  5
114
100
AcDbEntity
  8
Defpoints
370
               0
390
0
 62
               0
100
AcDbPoint
 10
375.30515515782042
 20
-627.23468803449339
 30
0.0
  0
POINT
  5
115
100
AcDbEntity
  8
Defpoints
370
               0
390
0
 62
               0
100
AcDbPoint
 10
375.30515515782042
 20
-517.23468803449339
 30
0.0
  0
POINT
  5
116
100
AcDbEntity
  8
Defpoints
370
               0
390
0
 62
               0
100
AcDbPoint
 10
204.32636983129888
 20
-517.23468803449339
 30
0.0
  0
ENDBLK
  5
117
100
AcDbEntity
  8
notes
390
0
100
AcDbBlockEnd
  0
BLOCK
  5
118
100
AcDbEntity
  8
notes
390
0
100
AcDbBlockBegin
  2
*D17
 70
               1
 10
0.0
 20
0.0
 30
0.0
  3
*D17
  1

  0
LINE
  5
119
100
AcDbEntity
  8
0
370
              -2
390
0
  6
Continuous
 62
               0
100
AcDbLine
 10
302.30508040103734
 20
1057.9954624358788
 30
0.0
 11
202.97246460785269
 21
1057.9954624358788
 31
0.0
  0
LINE
  5
11A
100
AcDbEntity
  8
0
370
              -2
390
0
  6
Continuous
 62
               0
100
AcDbLine
 10
302.30508040103734
 20
1007.9954624358788
 30
0.0
 11
202.97246460785269
 21
1007.9954624358788
 31
0.0
  0
LINE
  5
11B
100
AcDbEntity
  8
0
370
              -2
390
0
  6
Continuous
 62
               0
100
AcDbLine
 10
202.97246460785269
 20
1057.9954624358788
 30
0.0
 11
202.97246460785269
 21
1007.9954624358788
 31
0.0
  0
CIRCLE
  5
11C
102
{ACAD_REACTORS
330
11D
102
}
100
AcDbEntity
  8
0
370
              -2
390
0
  6
Continuous
 62
               0
100
AcDbCircle
 10
202.97246460785269
 20
1057.9954624358788
 30
0.0
 40
1.9998779296875
  0
HATCH
  5
11D
100
AcDbEntity
  8
0
370
              -2
390
0
  6
Continuous
 62
               0
100
AcDbHatch
 10
0.0
 20
0.0
 30
0.0
210
0.0
220
0.0
230
1.0
  2
SOLID
 70
               1
 71
               1
 91
        1
 92
        1
 93
        1
 72
               2
 10
202.97246460785269
 20
1057.9954624358788
 40
1.9998779296875
 50
0.0
 51
360.0
 73
               0
 97
        1
330
11C
 75
               0
 76
               1
 98
        1
 10
0.0
 20
0.0
  0
CIRCLE
  5
11E
102
{ACAD_REACTORS
330
11F
102
}
100
AcDbEntity
  8
0
370
              -2
390
0
  6
Continuous
 62
               0
100
AcDbCircle
 10
202.97246460785269
 20
1007.9954624358788
 30
0.0
 40
1.9998779296875
  0
HATCH
  5
11F
100
AcDbEntity
  8
0
370
              -2
390
0
  6
Continuous
 62
               0
100
AcDbHatch
 10
0.0
 20
0.0
 30
0.0
210
0.0
220
0.0
230
1.0
  2
SOLID
 70
               1
 71
               1
 91
        1
 92
        1
 93
        1
 72
               2
 10
202.97246460785269
 20
1007.9954624358788
 40
1.9998779296875
 50
0.0
 51
360.0
 73
               0
 97
        1
330
11E
 75
               0
 76
               1
 98
        1
 10
0.0
 20
0.0
  0
MTEXT
  5
120
100
AcDbEntity
  8
0
390
0
 62
               0
100
AcDbMText
 10
169.09484742035266
 20
1017.1204624358788
 30
0.0
 40
24.432617187500004
 41
0.0
 71
               1
 72
               1
  1
50
  7
ＭＳ ゴシック
 11
0.0
 21
1.0
 31
0.0
 73
               1
 44
0.7828267384257843
  0
POINT
  5
121
100
AcDbEntity
  8
Defpoints
370
               0
390
0
 62
               0
100
AcDbPoint
 10
327.30508040103734
 20
1007.9954624358788
 30
0.0
  0
POINT
  5
122
100
AcDbEntity
  8
Defpoints
370
               0
390
0
 62
               0
100
AcDbPoint
 10
327.30508040103734
 20
1057.9954624358788
 30
0.0
  0
POINT
  5
123
100
AcDbEntity
  8
Defpoints
370
               0
390
0
 62
               0
100
AcDbPoint
 10
202.97246460785269
 20
1057.9954624358788
 30
0.0
  0
ENDBLK
  5
124
100
AcDbEntity
  8
notes
390
0
100
AcDbBlockEnd
  0
BLOCK
  5
125
100
AcDbEntity
  8
notes
390
0
100
AcDbBlockBegin
  2
*D18
 70
               1
 10
0.0
 20
0.0
 30
0.0
  3
*D18
  1

  0
LINE
  5
126
100
AcDbEntity
  8
0
370
              -2
390
0
  6
Continuous
 62
               0
100
AcDbLine
 10
305.30509901749701
 20
770.9955261144645
 30
0.0
 11
305.30509901749701
 21
745.9955261144645
 31
0.0
  0
LINE
  5
127
100
AcDbEntity
  8
0
370
              -2
390
0
  6
Continuous
 62
               0
100
AcDbLine
 10
540.30509901749713
 20
770.9955261144645
 30
0.0
 11
540.30509901749713
 21
745.9955261144645
 31
0.0
  0
LINE
  5
128
100
AcDbEntity
  8
0
370
              -2
390
0
  6
Continuous
 62
               0
100
AcDbLine
 10
305.30509901749701
 20
745.9955261144645
 30
0.0
 11
540.30509901749713
 21
745.9955261144645
 31
0.0
  0
CIRCLE
  5
129
102
{ACAD_REACTORS
330
12A
102
}
100
AcDbEntity
  8
0
370
              -2
390
0
  6
Continuous
 62
               0
100
AcDbCircle
 10
305.30509901749701
 20
745.9955261144645
 30
0.0
 40
1.9998779296875
  0
HATCH
  5
12A
100
AcDbEntity
  8
0
370
              -2
390
0
  6
Continuous
 62
               0
100
AcDbHatch
 10
0.0
 20
0.0
 30
0.0
210
0.0
220
0.0
230
1.0
  2
SOLID
 70
               1
 71
               1
 91
        1
 92
        1
 93
        1
 72
               2
 10
305.30509901749701
 20
745.9955261144645
 40
1.9998779296875
 50
0.0
 51
360.0
 73
               0
 97
        1
330
129
 75
               0
 76
               1
 98
        1
 10
0.0
 20
0.0
  0
CIRCLE
  5
12B
102
{ACAD_REACTORS
330
12C
102
}
100
AcDbEntity
  8
0
370
              -2
390
0
  6
Continuous
 62
               0
100
AcDbCircle
 10
540.30509901749713
 20
745.9955261144645
 30
0.0
 40
1.9998779296875
  0
HATCH
  5
12C
100
AcDbEntity
  8
0
370
              -2
390
0
  6
Continuous
 62
               0
100
AcDbHatch
 10
0.0
 20
0.0
 30
0.0
210
0.0
220
0.0
230
1.0
  2
SOLID
 70
               1
 71
               1
 91
        1
 92
        1
 93
        1
 72
               2
 10
540.30509901749713
 20
745.9955261144645
 40
1.9998779296875
 50
0.0
 51
360.0
 73
               0
 97
        1
330
12B
 75
               0
 76
               1
 98
        1
 10
0.0
 20
0.0
  0
MTEXT
  5
12D
100
AcDbEntity
  8
0
390
0
 62
               0
100
AcDbMText
 10
351.36759901749713
 20
779.87314330196455
 30
0.0
 40
24.432617187500004
 41
0.0
 71
               1
 72
               1
  1
235(深さ)
  7
ＭＳ ゴシック
 73
               1
 44
0.7828267384257843
  0
POINT
  5
12E
100
AcDbEntity
  8
Defpoints
370
               0
390
0
 62
               0
100
AcDbPoint
 10
540.30509901749713
 20
745.9955261144645
 30
0.0
  0
POINT
  5
12F
100
AcDbEntity
  8
Defpoints
370
               0
390
0
 62
               0
100
AcDbPoint
 10
305.30509901749701
 20
745.9955261144645
 30
0.0
  0
POINT
  5
130
100
AcDbEntity
  8
Defpoints
370
               0
390
0
 62
               0
100
AcDbPoint
 10
305.30509901749701
 20
745.9955261144645
 30
0.0
  0
ENDBLK
  5
131
100
AcDbEntity
  8
notes
390
0
100
AcDbBlockEnd
  0
BLOCK
  5
132
100
AcDbEntity
  8
notes
390
0
100
AcDbBlockBegin
  2
*D19
 70
               1
 10
0.0
 20
0.0
 30
0.0
  3
*D19
  1

  0
LINE
  5
133
100
AcDbEntity
  8
0
370
              -2
390
0
  6
Continuous
 62
               0
100
AcDbLine
 10
305.30508040115967
 20
487.99546176641792
 30
0.0
 11
305.30508040115967
 21
407.99538825708743
 31
0.0
  0
LINE
  5
134
100
AcDbEntity
  8
0
370
              -2
390
0
  6
Continuous
 62
               0
100
AcDbLine
 10
585.30508040115967
 20
672.99546243597888
 30
0.0
 11
585.30508040115967
 21
407.99538825708743
 31
0.0
  0
LINE
  5
135
100
AcDbEntity
  8
0
370
              -2
390
0
  6
Continuous
 62
               0
100
AcDbLine
 10
305.30508040115967
 20
407.99538825708743
 30
0.0
 11
585.30508040115967
 21
407.99538825708743
 31
0.0
  0
CIRCLE
  5
136
102
{ACAD_REACTORS
330
137
102
}
100
AcDbEntity
  8
0
370
              -2
390
0
  6
Continuous
 62
               0
100
AcDbCircle
 10
305.30508040115967
 20
407.99538825708743
 30
0.0
 40
1.9998779296875
  0
HATCH
  5
137
100
AcDbEntity
  8
0
370
              -2
390
0
  6
Continuous
 62
               0
100
AcDbHatch
 10
0.0
 20
0.0
 30
0.0
210
0.0
220
0.0
230
1.0
  2
SOLID
 70
               1
 71
               1
 91
        1
 92
        1
 93
        1
 72
               2
 10
305.30508040115967
 20
407.99538825708743
 40
1.9998779296875
 50
0.0
 51
360.0
 73
               0
 97
        1
330
136
 75
               0
 76
               1
 98
        1
 10
0.0
 20
0.0
  0
CIRCLE
  5
138
102
{ACAD_REACTORS
330
139
102
}
100
AcDbEntity
  8
0
370
              -2
390
0
  6
Continuous
 62
               0
100
AcDbCircle
 10
585.30508040115967
 20
407.99538825708743
 30
0.0
 40
1.9998779296875
  0
HATCH
  5
139
100
AcDbEntity
  8
0
370
              -2
390
0
  6
Continuous
 62
               0
100
AcDbHatch
 10
0.0
 20
0.0
 30
0.0
210
0.0
220
0.0
230
1.0
  2
SOLID
 70
               1
 71
               1
 91
        1
 92
        1
 93
        1
 72
               2
 10
585.30508040115967
 20
407.99538825708743
 40
1.9998779296875
 50
0.0
 51
360.0
 73
               0
 97
        1
330
138
 75
               0
 76
               1
 98
        1
 10
0.0
 20
0.0
  0
MTEXT
  5
13A
100
AcDbEntity
  8
0
390
0
 62
               0
100
AcDbMText
 10
421.49257871898419
 20
441.87300544458742
 30
0.0
 40
24.432617187500004
 41
0.0
 71
               1
 72
               1
  1
280
  7
ＭＳ ゴシック
 73
               1
 44
0.7828267384257843
  0
POINT
  5
13B
100
AcDbEntity
  8
Defpoints
370
               0
390
0
 62
               0
100
AcDbPoint
 10
585.30508040115967
 20
697.99546243597888
 30
0.0
  0
POINT
  5
13C
100
AcDbEntity
  8
Defpoints
370
               0
390
0
 62
               0
100
AcDbPoint
 10
305.30508040115967
 20
512.99546176641798
 30
0.0
  0
POINT
  5
13D
100
AcDbEntity
  8
Defpoints
370
               0
390
0
 62
               0
100
AcDbPoint
 10
305.30508040115967
 20
407.99538825708743
 30
0.0
  0
ENDBLK
  5
13E
100
AcDbEntity
  8
notes
390
0
100
AcDbBlockEnd
  0
BLOCK
  5
13F
100
AcDbEntity
  8
notes
390
0
100
AcDbBlockBegin
  2
*D20
 70
               1
 10
0.0
 20
0.0
 30
0.0
  3
*D20
  1

  0
LINE
  5
140
100
AcDbEntity
  8
0
370
              -2
390
0
  6
Continuous
 62
               0
100
AcDbLine
 10
753.30508040116138
 20
1057.9954624359925
 30
0.0
 11
880.30508040111408
 21
1057.9954624359925
 31
0.0
  0
LINE
  5
141
100
AcDbEntity
  8
0
370
              -2
390
0
  6
Continuous
 62
               0
100
AcDbLine
 10
753.30508040116138
 20
647.99546243599229
 30
0.0
 11
880.30508040111408
 21
647.99546243599229
 31
0.0
  0
LINE
  5
142
100
AcDbEntity
  8
0
370
              -2
390
0
  6
Continuous
 62
               0
100
AcDbLine
 10
880.30508040111408
 20
1057.9954624359925
 30
0.0
 11
880.30508040111408
 21
647.99546243599229
 31
0.0
  0
CIRCLE
  5
143
102
{ACAD_REACTORS
330
144
102
}
100
AcDbEntity
  8
0
370
              -2
390
0
  6
Continuous
 62
               0
100
AcDbCircle
 10
880.30508040111408
 20
1057.9954624359925
 30
0.0
 40
1.9998779296875
  0
HATCH
  5
144
100
AcDbEntity
  8
0
370
              -2
390
0
  6
Continuous
 62
               0
100
AcDbHatch
 10
0.0
 20
0.0
 30
0.0
210
0.0
220
0.0
230
1.0
  2
SOLID
 70
               1
 71
               1
 91
        1
 92
        1
 93
        1
 72
               2
 10
880.30508040111408
 20
1057.9954624359925
 40
1.9998779296875
 50
0.0
 51
360.0
 73
               0
 97
        1
330
143
 75
               0
 76
               1
 98
        1
 10
0.0
 20
0.0
  0
CIRCLE
  5
145
102
{ACAD_REACTORS
330
146
102
}
100
AcDbEntity
  8
0
370
              -2
390
0
  6
Continuous
 62
               0
100
AcDbCircle
 10
880.30508040111408
 20
647.99546243599229
 30
0.0
 40
1.9998779296875
  0
HATCH
  5
146
100
AcDbEntity
  8
0
370
              -2
390
0
  6
Continuous
 62
               0
100
AcDbHatch
 10
0.0
 20
0.0
 30
0.0
210
0.0
220
0.0
230
1.0
  2
SOLID
 70
               1
 71
               1
 91
        1
 92
        1
 93
        1
 72
               2
 10
880.30508040111408
 20
647.99546243599229
 40
1.9998779296875
 50
0.0
 51
360.0
 73
               0
 97
        1
330
145
 75
               0
 76
               1
 98
        1
 10
0.0
 20
0.0
  0
MTEXT
  5
147
100
AcDbEntity
  8
0
390
0
 62
               0
100
AcDbMText
 10
846.42746321361403
 20
829.18296075381693
 30
0.0
 40
24.432617187500004
 41
0.0
 71
               1
 72
               1
  1
410
  7
ＭＳ ゴシック
 11
0.0
 21
1.0
 31
0.0
 73
               1
 44
0.7828267384257843
  0
POINT
  5
148
100
AcDbEntity
  8
Defpoints
370
               0
390
0
 62
               0
100
AcDbPoint
 10
728.30508040116138
 20
647.99546243599229
 30
0.0
  0
POINT
  5
149
100
AcDbEntity
  8
Defpoints
370
               0
390
0
 62
               0
100
AcDbPoint
 10
728.30508040116138
 20
1057.9954624359925
 30
0.0
  0
POINT
  5
14A
100
AcDbEntity
  8
Defpoints
370
               0
390
0
 62
               0
100
AcDbPoint
 10
880.30508040111408
 20
1057.9954624359925
 30
0.0
  0
ENDBLK
  5
14B
100
AcDbEntity
  8
notes
390
0
100
AcDbBlockEnd
  0
BLOCK
  5
14C
100
AcDbEntity
  8
notes
390
0
100
AcDbBlockBegin
  2
*D21
 70
               1
 10
0.0
 20
0.0
 30
0.0
  3
*D21
  1

  0
LINE
  5
14D
100
AcDbEntity
  8
0
370
              -2
390
0
  6
Continuous
 62
               0
100
AcDbLine
 10
613.94137731145167
 20
743.99546243599252
 30
0.0
 11
830.30508040111431
 21
743.99546243599252
 31
0.0
  0
LINE
  5
14E
100
AcDbEntity
  8
0
370
              -2
390
0
  6
Continuous
 62
               0
100
AcDbLine
 10
753.30508040116138
 20
1057.9954624359925
 30
0.0
 11
830.30508040111431
 21
1057.9954624359925
 31
0.0
  0
LINE
  5
14F
100
AcDbEntity
  8
0
370
              -2
390
0
  6
Continuous
 62
               0
100
AcDbLine
 10
830.30508040111431
 20
743.99546243599252
 30
0.0
 11
830.30508040111431
 21
1057.9954624359925
 31
0.0
  0
CIRCLE
  5
150
102
{ACAD_REACTORS
330
151
102
}
100
AcDbEntity
  8
0
370
              -2
390
0
  6
Continuous
 62
               0
100
AcDbCircle
 10
830.30508040111431
 20
743.99546243599252
 30
0.0
 40
1.9998779296875
  0
HATCH
  5
151
100
AcDbEntity
  8
0
370
              -2
390
0
  6
Continuous
 62
               0
100
AcDbHatch
 10
0.0
 20
0.0
 30
0.0
210
0.0
220
0.0
230
1.0
  2
SOLID
 70
               1
 71
               1
 91
        1
 92
        1
 93
        1
 72
               2
 10
830.30508040111431
 20
743.99546243599252
 40
1.9998779296875
 50
0.0
 51
360.0
 73
               0
 97
        1
330
150
 75
               0
 76
               1
 98
        1
 10
0.0
 20
0.0
  0
CIRCLE
  5
152
102
{ACAD_REACTORS
330
153
102
}
100
AcDbEntity
  8
0
370
              -2
390
0
  6
Continuous
 62
               0
100
AcDbCircle
 10
830.30508040111431
 20
1057.9954624359925
 30
0.0
 40
1.9998779296875
  0
HATCH
  5
153
100
AcDbEntity
  8
0
370
              -2
390
0
  6
Continuous
 62
               0
100
AcDbHatch
 10
0.0
 20
0.0
 30
0.0
210
0.0
220
0.0
230
1.0
  2
SOLID
 70
               1
 71
               1
 91
        1
 92
        1
 93
        1
 72
               2
 10
830.30508040111431
 20
1057.9954624359925
 40
1.9998779296875
 50
0.0
 51
360.0
 73
               0
 97
        1
330
152
 75
               0
 76
               1
 98
        1
 10
0.0
 20
0.0
  0
MTEXT
  5
154
100
AcDbEntity
  8
0
390
0
 62
               0
100
AcDbMText
 10
796.42746321361426
 20
877.18296075381704
 30
0.0
 40
24.432617187500004
 41
0.0
 71
               1
 72
               1
  1
310
  7
ＭＳ ゴシック
 11
0.0
 21
1.0
 31
0.0
 73
               1
 44
0.7828267384257843
  0
POINT
  5
155
100
AcDbEntity
  8
Defpoints
370
               0
390
0
 62
               0
100
AcDbPoint
 10
728.30508040116138
 20
1057.9954624359925
 30
0.0
  0
POINT
  5
156
100
AcDbEntity
  8
Defpoints
370
               0
390
0
 62
               0
100
AcDbPoint
 10
588.94137731145167
 20
743.99546243599252
 30
0.0
  0
POINT
  5
157
100
AcDbEntity
  8
Defpoints
370
               0
390
0
 62
               0
100
AcDbPoint
 10
830.30508040111431
 20
743.99546243599252
 30
0.0
  0
ENDBLK
  5
158
100
AcDbEntity
  8
notes
390
0
100
AcDbBlockEnd
  0
BLOCK
  5
159
100
AcDbEntity
  8
notes
390
0
100
AcDbBlockBegin
  2
*D22
 70
               1
 10
0.0
 20
0.0
 30
0.0
  3
*D22
  1

  0
LINE
  5
15A
100
AcDbEntity
  8
0
370
              -2
390
0
  6
Continuous
 62
               0
100
AcDbLine
 10
325.30508040102779
 20
1080.9954624358693
 30
0.0
 11
325.30508040102779
 21
1157.9954624359925
 31
0.0
  0
LINE
  5
15B
100
AcDbEntity
  8
0
370
              -2
390
0
  6
Continuous
 62
               0
100
AcDbLine
 10
730.30508040117093
 20
1080.9954624358693
 30
0.0
 11
730.30508040117093
 21
1157.9954624359925
 31
0.0
  0
LINE
  5
15C
100
AcDbEntity
  8
0
370
              -2
390
0
  6
Continuous
 62
               0
100
AcDbLine
 10
325.30508040102779
 20
1157.9954624359925
 30
0.0
 11
730.30508040117093
 21
1157.9954624359925
 31
0.0
  0
CIRCLE
  5
15D
102
{ACAD_REACTORS
330
15E
102
}
100
AcDbEntity
  8
0
370
              -2
390
0
  6
Continuous
 62
               0
100
AcDbCircle
 10
325.30508040102779
 20
1157.9954624359925
 30
0.0
 40
1.9998779296875
  0
HATCH
  5
15E
100
AcDbEntity
  8
0
370
              -2
390
0
  6
Continuous
 62
               0
100
AcDbHatch
 10
0.0
 20
0.0
 30
0.0
210
0.0
220
0.0
230
1.0
  2
SOLID
 70
               1
 71
               1
 91
        1
 92
        1
 93
        1
 72
               2
 10
325.30508040102779
 20
1157.9954624359925
 40
1.9998779296875
 50
0.0
 51
360.0
 73
               0
 97
        1
330
15D
 75
               0
 76
               1
 98
        1
 10
0.0
 20
0.0
  0
CIRCLE
  5
15F
102
{ACAD_REACTORS
330
160
102
}
100
AcDbEntity
  8
0
370
              -2
390
0
  6
Continuous
 62
               0
100
AcDbCircle
 10
730.30508040117093
 20
1157.9954624359925
 30
0.0
 40
1.9998779296875
  0
HATCH
  5
160
100
AcDbEntity
  8
0
370
              -2
390
0
  6
Continuous
 62
               0
100
AcDbHatch
 10
0.0
 20
0.0
 30
0.0
210
0.0
220
0.0
230
1.0
  2
SOLID
 70
               1
 71
               1
 91
        1
 92
        1
 93
        1
 72
               2
 10
730.30508040117093
 20
1157.9954624359925
 40
1.9998779296875
 50
0.0
 51
360.0
 73
               0
 97
        1
330
15F
 75
               0
 76
               1
 98
        1
 10
0.0
 20
0.0
  0
MTEXT
  5
161
100
AcDbEntity
  8
0
390
0
 62
               0
100
AcDbMText
 10
503.99257871892382
 20
1191.8730796234927
 30
0.0
 40
24.432617187500004
 41
0.0
 71
               1
 72
               1
  1
405
  7
ＭＳ ゴシック
 73
               1
 44
0.7828267384257843
  0
POINT
  5
162
100
AcDbEntity
  8
Defpoints
370
               0
390
0
 62
               0
100
AcDbPoint
 10
730.30508040117093
 20
1055.9954624358693
 30
0.0
  0
POINT
  5
163
100
AcDbEntity
  8
Defpoints
370
               0
390
0
 62
               0
100
AcDbPoint
 10
325.30508040102779
 20
1055.9954624358693
 30
0.0
  0
POINT
  5
164
100
AcDbEntity
  8
Defpoints
370
               0
390
0
 62
               0
100
AcDbPoint
 10
325.30508040102779
 20
1157.9954624359925
 30
0.0
  0
ENDBLK
  5
165
100
AcDbEntity
  8
notes
390
0
100
AcDbBlockEnd
  0
BLOCK
  5
166
100
AcDbEntity
  8
notes
390
0
100
AcDbBlockBegin
  2
*D23
 70
               1
 10
0.0
 20
0.0
 30
0.0
  3
*D23
  1

  0
LINE
  5
167
100
AcDbEntity
  8
0
370
              -2
390
0
  6
Continuous
 62
               0
100
AcDbLine
 10
-638.49174681672616
 20
-351.70354486281553
 30
0.0
 11
-531.16611548749074
 21
-244.37791353358011
 31
0.0
  0
CIRCLE
  5
168
102
{ACAD_REACTORS
330
169
102
}
100
AcDbEntity
  8
0
370
              -2
390
0
  6
Continuous
 62
               0
100
AcDbCircle
 10
-638.49174681672616
 20
-351.70354486281553
 30
0.0
 40
1.9998779296875
  0
HATCH
  5
169
100
AcDbEntity
  8
0
370
              -2
390
0
  6
Continuous
 62
               0
100
AcDbHatch
 10
0.0
 20
0.0
 30
0.0
210
0.0
220
0.0
230
1.0
  2
SOLID
 70
               1
 71
               1
 91
        1
 92
        1
 93
        1
 72
               2
 10
-638.49174681672616
 20
-351.70354486281553
 40
1.9998779296875
 50
0.0
 51
360.0
 73
               0
 97
        1
330
168
 75
               0
 76
               1
 98
        1
 10
0.0
 20
0.0
  0
LINE
  5
16A
100
AcDbEntity
  8
0
370
              -2
390
0
  6
Continuous
 62
               0
100
AcDbLine
 10
-531.16611548749074
 20
-244.37791353358011
 30
0.0
 11
-407.66611548749074
 21
-244.37791353358011
 31
0.0
  0
MTEXT
  5
16B
100
AcDbEntity
  8
0
390
0
 62
               0
100
AcDbMText
 10
-471.16611548749074
 20
-210.50029634608012
 30
0.0
 40
24.432617187500004
 41
0.0
 71
               1
 72
               1
  1
φ35
  7
ＭＳ ゴシック
 73
               1
 44
0.7828267384257843
  0
POINT
  5
16C
100
AcDbEntity
  8
Defpoints
370
               0
390
0
 62
               0
100
AcDbPoint
 10
-663.24048415825541
 20
-376.45228220434478
 30
0.0
  0
POINT
  5
16D
100
AcDbEntity
  8
Defpoints
370
               0
390
0
 62
               0
100
AcDbPoint
 10
-638.49174681672616
 20
-351.70354486281553
 30
0.0
  0
ENDBLK
  5
16E
100
AcDbEntity
  8
notes
390
0
100
AcDbBlockEnd
  0
ENDSEC
  0
SECTION
  2
ENTITIES
  0
MTEXT
  5
16F
100
AcDbEntity
  8
template
390
0
 62
               7
100
AcDbMText
 10
-967.99999999975921
 20
-1147.4176292337004
 30
0.0
 40
16.288411458333332
 41
0.0
 71
               1
 72
               1
  1
品名
  7
ＭＳ ゴシック
 73
               1
 44
0.7828267384257843
  0
MTEXT
  5
170
100
AcDbEntity
  8
template
390
0
 62
               7
100
AcDbMText
 10
-967.99999999975921
 20
-1232.4176292337004
 30
0.0
 40
16.288411458333332
 41
0.0
 71
               1
 72
               1
  1
仕様
  7
ＭＳ ゴシック
 73
               1
 44
0.7828267384257843
  0
MTEXT
  5
171
100
AcDbEntity
  8
template
390
0
 62
               7
100
AcDbMText
 10
-914.99999999975921
 20
-1176.0000901712006
 30
0.0
 40
24.432617187500004
 41
0.0
 71
               1
 72
               1
  1
洗面器 -SANINDUSA,Wca-
  7
ＭＳ ゴシック
 73
               1
 44
0.7828267384257843
  0
LINE
  5
172
100
AcDbEntity
  8
template
370
               5
390
0
  6
Continuous
 62
               7
100
AcDbLine
 10
974.99999999975876
 20
-1224.0027073587005
 30
0.0
 11
-975.00000000024124
 21
-1224.0027073587005
 31
0.0
  0
LWPOLYLINE
  5
173
100
AcDbEntity
  8
template
370
               5
390
0
  6
Continuous
 62
               7
100
AcDbPolyline
 90
        5
 70
             128
 10
975.00000000024124
 20
1405.9972926412995
 10
-974.99999999975921
 20
1405.9972926412995
 10
-974.99999999975921
 20
-1394.0027073587005
 10
975.00000000024124
 20
-1394.0027073587005
 10
975.00000000024124
 20
1405.9972926412995
  0
LINE
  5
174
100
AcDbEntity
  8
template
370
               5
390
0
  6
Continuous
 62
               7
100
AcDbLine
 10
974.99999999975876
 20
-1139.0027073587005
 30
0.0
 11
-975.00000000024124
 21
-1139.0027073587005
 31
0.0
  0
LINE
  5
175
100
AcDbEntity
  8
template
370
               5
390
0
  6
Continuous
 62
               7
100
AcDbLine
 10
975.00000000024124
 20
-1309.0027073587005
 30
0.0
 11
222.00000000024124
 21
-1309.0027073587005
 31
0.0
  0
MTEXT
  5
176
100
AcDbEntity
  8
template
390
0
 62
               7
100
AcDbMText
 10
-914.99999999975921
 20
-1261.0000901712006
 30
0.0
 40
24.432617187500004
 41
0.0
 71
               1
 72
               1
  1
壁掛け/オーバーフロー付き/壁取付ボルト付属/\P陶器/ホワイト
  7
ＭＳ ゴシック
 73
               1
 44
1.1307497332816883
  0
MTEXT
  5
177
100
AcDbEntity
  8
template
390
0
 62
               7
100
AcDbMText
 10
-974.99999999955594
 20
-1405.8565294155574
 30
0.0
 40
21.717881944444446
 41
0.0
 71
               1
 72
               1
  1
120419HO
  7
ＭＳ ゴシック
 73
               1
 44
0.7828267384257843
  0
MTEXT
  5
178
100
AcDbEntity
  8
template
390
0
 62
               7
100
AcDbMText
 10
251.87140625250089
 20
-1338.9131018320081
 30
0.0
 40
24.432617187500004
 41
0.0
 71
               1
 72
               1
  1
大洋金物株式会社 ティーフォルム事業部
  7
ＭＳ ゴシック
 73
               1
 44
0.7828267384257843
  0
INSERT
  5
179
100
AcDbEntity
  8
template
390
0
 62
               7
100
AcDbBlockReference
  2
グループ
 10
118.59885536764475
 20
201.06789452836097
 30
0.0
  0
MTEXT
  5
17A
100
AcDbEntity
  8
template
390
0
 62
               7
100
AcDbMText
 10
784.00000000049999
 20
-1261.0000901712006
 30
0.0
 40
24.432617187500004
 41
0.0
 71
               1
 72
               1
  1
1:10
  7
ＭＳ ゴシック
 73
               1
 44
0.7828267384257843
  0
MTEXT
  5
17B
100
AcDbEntity
  8
template
390
0
 62
               7
100
AcDbMText
 10
731.00000000049999
 20
-1232.4176292337004
 30
0.0
 40
16.288411458333332
 41
0.0
 71
               1
 72
               1
  1
縮尺
  7
ＭＳ ゴシック
 73
               1
 44
0.7828267384257843
  0
LINE
  5
17C
100
AcDbEntity
  8
template
370
               5
390
0
  6
Continuous
 62
               7
100
AcDbLine
 10
724.00000000049999
 20
-1309.0027073587005
 30
0.0
 11
724.00000000049999
 21
-1224.0027073587005
 31
0.0
  0
MTEXT
  5
17D
100
AcDbEntity
  8
template
390
0
 62
               7
100
AcDbMText
 10
480.00000000049999
 20
-1232.4176292337004
 30
0.0
 40
16.288411458333332
 41
0.0
 71
               1
 72
               1
  1
容量
  7
ＭＳ ゴシック
 73
               1
 44
0.7828267384257843
  0
MTEXT
  5
17E
100
AcDbEntity
  8
template
390
0
 62
               7
100
AcDbMText
 10
533.00000000049999
 20
-1261.0000901712006
 30
0.0
 40
24.432617187500004
 41
0.0
 71
               1
 72
               1
  1
34L
  7
ＭＳ ゴシック
 73
               1
 44
0.7828267384257843
  0
LINE
  5
17F
100
AcDbEntity
  8
template
370
               5
390
0
  6
Continuous
 62
               7
100
AcDbLine
 10
473.00000000049999
 20
-1309.0027073587005
 30
0.0
 11
473.00000000049999
 21
-1224.0027073587005
 31
0.0
  0
MTEXT
  5
180
100
AcDbEntity
  8
template
390
0
 62
               7
100
AcDbMText
 10
229.00000000049999
 20
-1147.4176292337004
 30
0.0
 40
16.288411458333332
 41
0.0
 71
               1
 72
               1
  1
品番
  7
ＭＳ ゴシック
 73
               1
 44
0.7828267384257843
  0
MTEXT
  5
181
100
AcDbEntity
  8
template
390
0
 62
               7
100
AcDbMText
 10
229.00000000049999
 20
-1232.4176292337004
 30
0.0
 40
16.288411458333332
 41
0.0
 71
               1
 72
               1
  1
重量
  7
ＭＳ ゴシック
 73
               1
 44
0.7828267384257843
  0
MTEXT
  5
182
100
AcDbEntity
  8
template
390
0
 62
               7
100
AcDbMText
 10
282.00000000049999
 20
-1176.0000901712006
 30
0.0
 40
24.432617187500004
 41
0.0
 71
               1
 72
               1
  1
PLT70-0102
  7
ＭＳ ゴシック
 73
               1
 44
0.7828267384257843
  0
MTEXT
  5
183
100
AcDbEntity
  8
template
390
0
 62
               7
100
AcDbMText
 10
282.00000000049999
 20
-1261.0000901712006
 30
0.0
 40
24.432617187500004
 41
0.0
 71
               1
 72
               1
  1
43kg
  7
ＭＳ ゴシック
 73
               1
 44
0.7828267384257843
  0
LINE
  5
184
100
AcDbEntity
  8
template
370
               5
390
0
  6
Continuous
 62
               7
100
AcDbLine
 10
222.00000000049999
 20
-1394.0027073587005
 30
0.0
 11
222.00000000049999
 21
-1139.0027073587005
 31
0.0
  0
MTEXT
  5
185
100
AcDbEntity
  8
notes
390
0
 62
               7
100
AcDbMText
 10
219.95626181547644
 20
-26.234947670718128
 30
0.0
 40
24.432617187500004
 41
0.0
 71
               1
 72
               1
  1
壁取付ボルト穴(4ヶ所)
  7
ＭＳ ゴシック
 11
0.0
 21
1.0
 31
0.0
 73
               1
 44
0.7828267384257843
  0
LINE
  5
186
100
AcDbEntity
  8
notes
370
               5
390
0
  6
Continuous
 62
               7
100
AcDbLine
 10
395.32636983129885
 20
-97.275738764587857
 30
0.0
 11
249.96612082163986
 21
-9.5765172867333774
 31
0.0
  0
DIMENSION
  5
187
100
AcDbEntity
  8
notes
370
               5
390
0
  6
Continuous
 62
               7
100
AcDbDimension
  2
*D3
 10
-699.86611548744793
 20
189.57476091818259
 30
0.0
 11
-432.36611548744793
 21
189.57476091818259
 31
0.0
 71
               5
 72
               1
 41
1.0
 42
0.0
  3
tfrom線あり
100
AcDbAlignedDimension
 13
-164.86611548744796
 23
-72.0
 33
0.0
 14
-699.86611548744793
 24
84.508002799580666
 34
0.0
100
AcDbRotatedDimension
1001
ACAD
1000
DSTYLE
1002
{
1070
             279
1070
               2
1070
             340
1005
39
1070
             147
1040
5.0
1002
}
  0
DIMENSION
  5
188
100
AcDbEntity
  8
notes
370
               5
390
0
  6
Continuous
 62
               7
100
AcDbDimension
  2
*D4
 10
-849.86611548748408
 20
-812.47587723186268
 30
0.0
 11
-849.86611548748408
 21
-362.4758772318628
 31
0.0
 71
               5
 72
               1
 41
1.0
 42
0.0
  3
tfrom線あり
100
AcDbAlignedDimension
 13
-699.86611548744793
 23
87.524122768137147
 33
0.0
 14
-699.86611548744793
 24
-812.47587723186268
 34
0.0
 50
90.0
100
AcDbRotatedDimension
1001
ACAD
1000
DSTYLE
1002
{
1070
             279
1070
               2
1070
             340
1005
39
1070
             147
1040
5.0
1002
}
  0
DIMENSION
  5
189
100
AcDbEntity
  8
notes
370
               5
390
0
  6
Continuous
 62
               7
100
AcDbDimension
  2
*D5
 10
-699.86611548744793
 20
-962.54318637123038
 30
0.0
 11
-657.36611548744793
 21
-957.54318637123038
 31
0.0
 70
             128
 71
               5
 72
               1
 41
1.0
 42
0.0
  3
tfrom線あり
100
AcDbAlignedDimension
 13
-614.86611548744793
 23
-838.33997524868209
 33
0.0
 14
-699.86611548744793
 24
-809.50270129011369
 34
0.0
100
AcDbRotatedDimension
1001
ACAD
1000
DSTYLE
1002
{
1070
             279
1070
               2
1070
             340
1005
39
1070
             147
1040
5.0
1002
}
  0
DIMENSION
  5
18A
100
AcDbEntity
  8
notes
370
               5
390
0
  6
Continuous
 62
               7
100
AcDbDimension
  2
*D6
 10
-614.86611548744793
 20
-963.0
 30
0.0
 11
-389.8661154874477
 21
-963.0
 31
0.0
 71
               5
 72
               1
 41
1.0
 42
0.0
  3
tfrom線あり
100
AcDbAlignedDimension
 13
-164.86611548744756
 23
-650.0
 33
0.0
 14
-614.86611548744793
 24
-814.89839443872586
 34
0.0
100
AcDbRotatedDimension
1001
ACAD
1000
DSTYLE
1002
{
1070
             279
1070
               2
1070
             340
1005
39
1070
             147
1040
5.0
1002
}
  0
DIMENSION
  5
18B
100
AcDbEntity
  8
notes
370
               5
390
0
  6
Continuous
 62
               7
100
AcDbDimension
  2
*D7
 10
204.32636983129888
 20
-517.23468803449339
 30
0.0
 11
204.32636983129888
 21
-362.23468803449362
 31
0.0
 71
               5
 72
               1
 41
1.0
 42
0.0
  3
tfrom線あり
100
AcDbAlignedDimension
 13
375.30515515782042
 23
-207.23468803449384
 33
0.0
 14
375.30515515782042
 24
-517.23468803449339
 34
0.0
 50
90.0
100
AcDbRotatedDimension
1001
ACAD
1000
DSTYLE
1002
{
1070
             279
1070
               2
1070
             340
1005
39
1070
             147
1040
5.0
1002
}
  0
DIMENSION
  5
18C
100
AcDbEntity
  8
notes
370
               5
390
0
  6
Continuous
 62
               7
100
AcDbDimension
  2
*D8
 10
395.28462979277344
 20
-912.4758772318628
 30
0.0
 11
350.27398507770386
 21
-912.4758772318628
 31
0.0
 71
               5
 72
               1
 41
1.0
 42
0.0
  3
tfrom線あり
100
AcDbAlignedDimension
 13
305.26334036263415
 23
-805.46667517440233
 33
0.0
 14
395.28462979277344
 24
-647.25521339954037
 34
0.0
100
AcDbRotatedDimension
1001
ACAD
1000
DSTYLE
1002
{
1070
             279
1070
               2
1070
             340
1005
39
1070
             147
1040
5.0
1002
}
  0
DIMENSION
  5
18D
100
AcDbEntity
  8
notes
370
               5
390
0
  6
Continuous
 62
               7
100
AcDbDimension
  2
*D9
 10
-62.866115487470495
 20
-772.48735515515273
 30
0.0
 11
-62.866115487470495
 21
-362.49639462471328
 31
0.0
 71
               5
 72
               1
 41
1.0
 42
0.0
  3
tfrom線あり
100
AcDbAlignedDimension
 13
-262.79742288034163
 23
47.49456590572629
 33
0.0
 14
-262.79742288034163
 24
-772.48735515515273
 34
0.0
 50
90.0
100
AcDbRotatedDimension
1001
ACAD
1000
DSTYLE
1002
{
1070
             279
1070
               2
1070
             340
1005
39
1070
             147
1040
5.0
1002
}
  0
DIMENSION
  5
18E
100
AcDbEntity
  8
notes
370
               5
390
0
  6
Continuous
 62
               7
100
AcDbDimension
  2
*D10
 10
305.30508040115956
 20
185.45231733310357
 30
0.0
 11
517.80506468211252
 21
185.45231733310357
 31
0.0
 71
               5
 72
               1
 41
1.0
 42
0.0
  3
tfrom線あり
100
AcDbAlignedDimension
 13
730.30504896306547
 23
-9.3363795982127442
 33
0.0
 14
305.30508040115956
 24
77.460720647292277
 34
0.0
100
AcDbRotatedDimension
1001
ACAD
1000
DSTYLE
1002
{
1070
             279
1070
               2
1070
             340
1005
39
1070
             147
1040
5.0
1002
}
  0
DIMENSION
  5
18F
100
AcDbEntity
  8
notes
370
               5
390
0
  6
Continuous
 62
               7
100
AcDbDimension
  2
*D11
 10
-572.86608094679593
 20
-912.47587723186302
 30
0.0
 11
-387.86611708812814
 21
-912.47587723186302
 31
0.0
 71
               5
 72
               1
 41
1.0
 42
0.0
  3
tfrom線あり
100
AcDbAlignedDimension
 13
-202.86615322946025
 23
-715.55893410486624
 33
0.0
 14
-572.86608094679593
 24
-810.57791353358027
 34
0.0
100
AcDbRotatedDimension
1001
ACAD
1000
DSTYLE
1002
{
1070
             279
1070
               2
1070
             340
1005
39
1070
             147
1040
5.0
1002
}
  0
DIMENSION
  5
190
100
AcDbEntity
  8
notes
370
               5
390
0
  6
Continuous
 62
               7
100
AcDbDimension
  2
*D12
 10
-799.86611548748408
 20
-264.07791353358039
 30
0.0
 11
-799.86611548748408
 21
-314.07791353358027
 31
0.0
 71
               5
 72
               1
 41
1.0
 42
0.0
  3
tfrom線あり
100
AcDbAlignedDimension
 13
-668.36611548749079
 23
-364.07791353358016
 33
0.0
 14
-668.36611548749079
 24
-264.07791353358039
 34
0.0
 50
90.0
100
AcDbRotatedDimension
1001
ACAD
1000
DSTYLE
1002
{
1070
             279
1070
               2
1070
             340
1005
39
1070
             147
1040
5.0
1002
}
  0
DIMENSION
  5
191
100
AcDbEntity
  8
notes
370
               5
390
0
  6
Continuous
 62
               7
100
AcDbDimension
  2
*D13
 10
-799.86611548748408
 20
-364.07791353358016
 30
0.0
 11
-799.86611548748408
 21
-414.07791353358016
 31
0.0
 71
               5
 72
               1
 41
1.0
 42
0.0
  3
tfrom線あり
100
AcDbAlignedDimension
 13
-668.36611548749079
 23
-464.07791353358016
 33
0.0
 14
-668.36611548749079
 24
-364.07791353358016
 34
0.0
 50
90.0
100
AcDbRotatedDimension
1001
ACAD
1000
DSTYLE
1002
{
1070
             279
1070
               2
1070
             340
1005
39
1070
             147
1040
5.0
1002
}
  0
DIMENSION
  5
192
100
AcDbEntity
  8
notes
370
               5
390
0
  6
Continuous
 62
               7
100
AcDbDimension
  2
*D14
 10
851.30508040115944
 20
12.497527138855759
 30
0.0
 11
851.30508040115944
 21
-362.50247286114416
 31
0.0
 71
               5
 72
               1
 41
1.0
 42
0.0
  3
tfrom線あり
100
AcDbAlignedDimension
 13
730.30508028459803
 23
-737.50247286114416
 33
0.0
 14
730.30508028459803
 24
12.497527138855759
 34
0.0
 50
90.0
100
AcDbRotatedDimension
1001
ACAD
1000
DSTYLE
1002
{
1070
             279
1070
               2
1070
             340
1005
39
1070
             147
1040
5.0
1002
}
  0
DIMENSION
  5
193
100
AcDbEntity
  8
notes
370
               5
390
0
  6
Continuous
 62
               7
100
AcDbDimension
  2
*D15
 10
204.32636983129888
 20
-207.23468803449384
 30
0.0
 11
204.32636983129888
 21
-152.23468803449384
 31
0.0
 71
               5
 72
               1
 41
1.0
 42
0.0
  3
tfrom線あり
100
AcDbAlignedDimension
 13
375.30515515782042
 23
-97.234688034493843
 33
0.0
 14
375.30515515782042
 24
-207.23468803449384
 34
0.0
 50
90.0
100
AcDbRotatedDimension
1001
ACAD
1000
DSTYLE
1002
{
1070
             279
1070
               2
1070
             340
1005
39
1070
             147
1040
5.0
1002
}
  0
DIMENSION
  5
194
100
AcDbEntity
  8
notes
370
               5
390
0
  6
Continuous
 62
               7
100
AcDbDimension
  2
*D16
 10
204.32636983129888
 20
-517.23468803449339
 30
0.0
 11
204.32636983129888
 21
-572.23468803449339
 31
0.0
 71
               5
 72
               1
 41
1.0
 42
0.0
  3
tfrom線あり
100
AcDbAlignedDimension
 13
375.30515515782042
 23
-627.23468803449339
 33
0.0
 14
375.30515515782042
 24
-517.23468803449339
 34
0.0
 50
90.0
100
AcDbRotatedDimension
1001
ACAD
1000
DSTYLE
1002
{
1070
             279
1070
               2
1070
             340
1005
39
1070
             147
1040
5.0
1002
}
  0
DIMENSION
  5
195
100
AcDbEntity
  8
notes
370
               5
390
0
  6
Continuous
 62
               7
100
AcDbDimension
  2
*D17
 10
202.97246460785269
 20
1057.9954624358788
 30
0.0
 11
202.97246460785269
 21
1032.9954624358788
 31
0.0
 71
               5
 72
               1
 41
1.0
 42
0.0
  3
tfrom線あり
100
AcDbAlignedDimension
 13
327.30508040103734
 23
1007.9954624358788
 33
0.0
 14
327.30508040103734
 24
1057.9954624358788
 34
0.0
 50
90.0
100
AcDbRotatedDimension
1001
ACAD
1000
DSTYLE
1002
{
1070
             279
1070
               2
1070
             340
1005
39
1070
             147
1040
5.0
1002
}
  0
DIMENSION
  5
196
100
AcDbEntity
  8
notes
370
               5
390
0
  6
Continuous
 62
               7
100
AcDbDimension
  2
*D18
 10
305.30509901749701
 20
745.9955261144645
 30
0.0
 11
422.80509901749713
 21
745.9955261144645
 31
0.0
 71
               5
 72
               1
 41
1.0
 42
0.0
  3
tfrom線あり
100
AcDbAlignedDimension
 13
540.30509901749713
 23
745.9955261144645
 33
0.0
 14
305.30509901749701
 24
745.9955261144645
 34
0.0
100
AcDbRotatedDimension
1001
ACAD
1000
DSTYLE
1002
{
1070
             279
1070
               2
1070
             340
1005
39
1070
               3
1000
<>(深さ)
1070
             147
1040
5.0
1002
}
  0
DIMENSION
  5
197
100
AcDbEntity
  8
notes
370
               5
390
0
  6
Continuous
 62
               7
100
AcDbDimension
  2
*D19
 10
305.30508040115967
 20
407.99538825708743
 30
0.0
 11
445.30508040115967
 21
407.99538825708743
 31
0.0
 71
               5
 72
               1
 41
1.0
 42
0.0
  3
tfrom線あり
100
AcDbAlignedDimension
 13
585.30508040115967
 23
697.99546243597888
 33
0.0
 14
305.30508040115967
 24
512.99546176641798
 34
0.0
100
AcDbRotatedDimension
1001
ACAD
1000
DSTYLE
1002
{
1070
             279
1070
               2
1070
             340
1005
39
1070
             147
1040
5.0
1002
}
  0
DIMENSION
  5
198
100
AcDbEntity
  8
notes
370
               5
390
0
  6
Continuous
 62
               7
100
AcDbDimension
  2
*D20
 10
880.30508040111408
 20
1057.9954624359925
 30
0.0
 11
880.30508040111408
 21
852.99546243599241
 31
0.0
 71
               5
 72
               1
 41
1.0
 42
0.0
  3
tfrom線あり
100
AcDbAlignedDimension
 13
728.30508040116138
 23
647.99546243599229
 33
0.0
 14
728.30508040116138
 24
1057.9954624359925
 34
0.0
 50
90.0
100
AcDbRotatedDimension
1001
ACAD
1000
DSTYLE
1002
{
1070
             279
1070
               2
1070
             340
1005
39
1070
             147
1040
5.0
1002
}
  0
DIMENSION
  5
199
100
AcDbEntity
  8
notes
370
               5
390
0
  6
Continuous
 62
               7
100
AcDbDimension
  2
*D21
 10
830.30508040111431
 20
743.99546243599252
 30
0.0
 11
830.30508040111431
 21
900.99546243599252
 31
0.0
 71
               5
 72
               1
 41
1.0
 42
0.0
  1
310
  3
tfrom線あり
100
AcDbAlignedDimension
 13
728.30508040116138
 23
1057.9954624359925
 33
0.0
 14
588.94137731145167
 24
743.99546243599252
 34
0.0
 50
90.0
100
AcDbRotatedDimension
1001
ACAD
1000
DSTYLE
1002
{
1070
             279
1070
               2
1070
             340
1005
39
1070
             147
1040
5.0
1002
}
  0
DIMENSION
  5
19A
100
AcDbEntity
  8
notes
370
               5
390
0
  6
Continuous
 62
               7
100
AcDbDimension
  2
*D22
 10
325.30508040102779
 20
1157.9954624359925
 30
0.0
 11
527.80508040109942
 21
1157.9954624359925
 31
0.0
 71
               5
 72
               1
 41
1.0
 42
0.0
  3
tfrom線あり
100
AcDbAlignedDimension
 13
730.30508040117093
 23
1055.9954624358693
 33
0.0
 14
325.30508040102779
 24
1055.9954624358693
 34
0.0
100
AcDbRotatedDimension
1001
ACAD
1000
DSTYLE
1002
{
1070
             279
1070
               2
1070
             340
1005
39
1070
             147
1040
5.0
1002
}
  0
DIMENSION
  5
19B
100
AcDbEntity
  8
notes
370
               5
390
0
  6
Continuous
 62
               7
100
AcDbDimension
  2
*D23
 10
-663.24048415825541
 20
-376.45228220434478
 30
0.0
 11
-471.16611548749074
 21
-244.37791353358011
 31
0.0
 70
               3
 71
               5
 72
               1
 41
1.0
 42
0.0
  3
tfrom線あり
100
AcDbDiametricDimension
 15
-638.49174681672616
 25
-351.70354486281553
 35
0.0
 40
151.78136341605949
1001
ACAD
1000
DSTYLE
1002
{
1070
             289
1070
               0
1070
             342
1005
4C
1070
             340
1005
39
1070
              73
1070
               1
1070
              74
1070
               1
1070
              75
1070
               1
1070
              76
1070
               1
1070
               3
1000

1070
             174
1070
               0
1070
             147
1040
5.0
1002
}
  0
LINE
  5
19C
100
AcDbEntity
  8
PLT70-0102
370
              15
390
0
  6
Continuous
 62
               7
100
AcDbLine
 10
-696.89283290835635
 20
87.507883827186276
 30
0.0
 11
-696.87140530475733
 21
87.511126961189291
 31
0.0
  0
CIRCLE
  5
19D
100
AcDbEntity
  8
PLT70-0102
370
              15
390
0
  6
Continuous
 62
               7
100
AcDbCircle
 10
-387.89491959884026
 20
-362.49639462471305
 30
0.0
 40
22.499999999993673
  0
LINE
  5
19E
100
AcDbEntity
  8
PLT70-0102
370
              15
390
0
  6
Continuous
 62
               7
100
AcDbLine
 10
-162.86634087696959
 20
-137.49639462471913
 30
0.0
 11
-162.87508315758279
 21
-137.22431977201671
 31
0.0
  0
LINE
  5
19F
100
AcDbEntity
  8
PLT70-0102
370
              15
390
0
  6
Continuous
 62
               7
100
AcDbLine
 10
-162.87508315758279
 20
-137.22431977201671
 30
0.0
 11
-162.86611548747052
 21
-587.49639462472169
 31
0.0
  0
LINE
  5
1A0
100
AcDbEntity
  8
PLT70-0102
370
              15
390
0
  6
Continuous
 62
               7
100
AcDbLine
 10
-202.86615322946025
 20
-137.61351327916952
 30
0.0
 11
-202.86615322946025
 21
-587.3792759702568
 31
0.0
  0
ARC
  5
1A1
100
AcDbEntity
  8
PLT70-0102
370
              15
390
0
  6
Continuous
 62
               7
100
AcDbCircle
 10
-696.86611548754729
 20
-809.50270129011369
 30
0.0
 40
2.9999999999859028
100
AcDbArc
 50
180.0
 51
270.321430335321
  0
LINE
  5
1A2
100
AcDbEntity
  8
PLT70-0102
370
              15
390
0
  6
Continuous
 62
               7
100
AcDbLine
 10
-567.58617270488844
 20
-376.39605802532083
 30
0.0
 11
-567.59098151217859
 21
-376.38144077111201
 31
0.0
  0
LINE
  5
1A3
100
AcDbEntity
  8
PLT70-0102
370
              15
390
0
  6
Continuous
 62
               7
100
AcDbLine
 10
-567.59590228258662
 20
-348.62194069542306
 30
0.0
 11
-567.59612337557587
 21
-348.61974982241827
 31
0.0
  0
POLYLINE
  5
1A4
100
AcDbEntity
  8
PLT70-0102
370
              15
390
0
  6
Continuous
 62
               7
100
AcDb2dPolyline
 66
               1
 10
0.0
 20
0.0
 30
0.0
 75
               5
  0
VERTEX
  5
1A5
100
AcDbEntity
  8
PLT70-0102
370
              15
390
0
  6
Continuous
 62
               7
100
AcDbVertex
100
AcDb2dVertex
 10
-568.03731204567089
 20
-357.58979795221489
 30
0.0
  0
VERTEX
  5
1A6
100
AcDbEntity
  8
PLT70-0102
370
              15
390
0
  6
Continuous
 62
               7
100
AcDbVertex
100
AcDb2dVertex
 10
-568.03252291376384
 20
-356.89916159031964
 30
0.0
  0
VERTEX
  5
1A7
100
AcDbEntity
  8
PLT70-0102
370
              15
390
0
  6
Continuous
 62
               7
100
AcDbVertex
100
AcDb2dVertex
 10
-568.00340546976304
 20
-354.73240885231371
 30
0.0
  0
VERTEX
  5
1A8
100
AcDbEntity
  8
PLT70-0102
370
              15
390
0
  6
Continuous
 62
               7
100
AcDbVertex
100
AcDb2dVertex
 10
-567.95665567568267
 20
-352.78933263951694
 30
0.0
  0
VERTEX
  5
1A9
100
AcDbEntity
  8
PLT70-0102
370
              15
390
0
  6
Continuous
 62
               7
100
AcDbVertex
100
AcDb2dVertex
 10
-567.88726374667976
 20
-351.11858956231822
 30
0.0
  0
VERTEX
  5
1AA
100
AcDbEntity
  8
PLT70-0102
370
              15
390
0
  6
Continuous
 62
               7
100
AcDbVertex
100
AcDb2dVertex
 10
-567.79031460228725
 20
-349.7747129625136
 30
0.0
  0
VERTEX
  5
1AB
100
AcDbEntity
  8
PLT70-0102
370
              15
390
0
  6
Continuous
 62
               7
100
AcDbVertex
100
AcDb2dVertex
 10
-567.6628195872654
 20
-348.7879003272094
 30
0.0
  0
VERTEX
  5
1AC
100
AcDbEntity
  8
PLT70-0102
370
              15
390
0
  6
Continuous
 62
               7
100
AcDbVertex
100
AcDb2dVertex
 10
-567.50289167737424
 20
-348.19183104501371
 30
0.0
  0
VERTEX
  5
1AD
100
AcDbEntity
  8
PLT70-0102
370
              15
390
0
  6
Continuous
 62
               7
100
AcDbVertex
100
AcDb2dVertex
 10
-567.31258214426407
 20
-347.99652943121328
 30
0.0
  0
VERTEX
  5
1AE
100
AcDbEntity
  8
PLT70-0102
370
              15
390
0
  6
Continuous
 62
               7
100
AcDbVertex
100
AcDb2dVertex
 10
-567.09481852356748
 20
-348.21356609832287
 30
0.0
  0
VERTEX
  5
1AF
100
AcDbEntity
  8
PLT70-0102
370
              15
390
0
  6
Continuous
 62
               7
100
AcDbVertex
100
AcDb2dVertex
 10
-566.85813016298016
 20
-348.83112815481309
 30
0.0
  0
VERTEX
  5
1B0
100
AcDbEntity
  8
PLT70-0102
370
              15
390
0
  6
Continuous
 62
               7
100
AcDbVertex
100
AcDb2dVertex
 10
-566.61043557707148
 20
-349.8435273739201
 30
0.0
  0
VERTEX
  5
1B1
100
AcDbEntity
  8
PLT70-0102
370
              15
390
0
  6
Continuous
 62
               7
100
AcDbVertex
100
AcDb2dVertex
 10
-566.3655135631659
 20
-351.21371213722296
 30
0.0
  0
VERTEX
  5
1B2
100
AcDbEntity
  8
PLT70-0102
370
              15
390
0
  6
Continuous
 62
               7
100
AcDbVertex
100
AcDb2dVertex
 10
-566.13567455326165
 20
-352.9151614027196
 30
0.0
  0
VERTEX
  5
1B3
100
AcDbEntity
  8
PLT70-0102
370
              15
390
0
  6
Continuous
 62
               7
100
AcDbVertex
100
AcDb2dVertex
 10
-565.93512593408536
 20
-354.89059913471942
 30
0.0
  0
VERTEX
  5
1B4
100
AcDbEntity
  8
PLT70-0102
370
              15
390
0
  6
Continuous
 62
               7
100
AcDbVertex
100
AcDb2dVertex
 10
-565.77735653098262
 20
-357.08003852981528
 30
0.0
  0
VERTEX
  5
1B5
100
AcDbEntity
  8
PLT70-0102
370
              15
390
0
  6
Continuous
 62
               7
100
AcDbVertex
100
AcDb2dVertex
 10
-565.6709735987663
 20
-359.42464621692193
 30
0.0
  0
VERTEX
  5
1B6
100
AcDbEntity
  8
PLT70-0102
370
              15
390
0
  6
Continuous
 62
               7
100
AcDbVertex
100
AcDb2dVertex
 10
-565.62171006646213
 20
-362.49639462471305
 30
0.0
  0
VERTEX
  5
1B7
100
AcDbEntity
  8
PLT70-0102
370
              15
390
0
  6
Continuous
 62
               7
100
AcDbVertex
100
AcDb2dVertex
 10
-565.6524119626697
 20
-364.91220783071253
 30
0.0
  0
VERTEX
  5
1B8
100
AcDbEntity
  8
PLT70-0102
370
              15
390
0
  6
Continuous
 62
               7
100
AcDbVertex
100
AcDb2dVertex
 10
-565.74130237498412
 20
-367.26019462001568
 30
0.0
  0
VERTEX
  5
1B9
100
AcDbEntity
  8
PLT70-0102
370
              15
390
0
  6
Continuous
 62
               7
100
AcDbVertex
100
AcDb2dVertex
 10
-565.88343227988548
 20
-369.47030335880936
 30
0.0
  0
VERTEX
  5
1BA
100
AcDbEntity
  8
PLT70-0102
370
              15
390
0
  6
Continuous
 62
               7
100
AcDbVertex
100
AcDb2dVertex
 10
-566.06896499607319
 20
-371.48652555821081
 30
0.0
  0
VERTEX
  5
1BB
100
AcDbEntity
  8
PLT70-0102
370
              15
390
0
  6
Continuous
 62
               7
100
AcDbVertex
100
AcDb2dVertex
 10
-566.28830557977085
 20
-373.25800412871467
 30
0.0
  0
VERTEX
  5
1BC
100
AcDbEntity
  8
PLT70-0102
370
              15
390
0
  6
Continuous
 62
               7
100
AcDbVertex
100
AcDb2dVertex
 10
-566.52750808697351
 20
-374.7296619910112
 30
0.0
  0
VERTEX
  5
1BD
100
AcDbEntity
  8
PLT70-0102
370
              15
390
0
  6
Continuous
 62
               7
100
AcDbVertex
100
AcDb2dVertex
 10
-566.77551441458309
 20
-375.86356658852037
 30
0.0
  0
VERTEX
  5
1BE
100
AcDbEntity
  8
PLT70-0102
370
              15
390
0
  6
Continuous
 62
               7
100
AcDbVertex
100
AcDb2dVertex
 10
-567.01815963216563
 20
-376.61948019761803
 30
0.0
  0
VERTEX
  5
1BF
100
AcDbEntity
  8
PLT70-0102
370
              15
390
0
  6
Continuous
 62
               7
100
AcDbVertex
100
AcDb2dVertex
 10
-567.24454857268415
 20
-376.96977863851043
 30
0.0
  0
VERTEX
  5
1C0
100
AcDbEntity
  8
PLT70-0102
370
              15
390
0
  6
Continuous
 62
               7
100
AcDbVertex
100
AcDb2dVertex
 10
-567.44641842837086
 20
-376.90724260981733
 30
0.0
  0
VERTEX
  5
1C1
100
AcDbEntity
  8
PLT70-0102
370
              15
390
0
  6
Continuous
 62
               7
100
AcDbVertex
100
AcDb2dVertex
 10
-567.61697577868676
 20
-376.42913799261601
 30
0.0
  0
VERTEX
  5
1C2
100
AcDbEntity
  8
PLT70-0102
370
              15
390
0
  6
Continuous
 62
               7
100
AcDbVertex
100
AcDb2dVertex
 10
-567.75545239318194
 20
-375.55494305541924
 30
0.0
  0
VERTEX
  5
1C3
100
AcDbEntity
  8
PLT70-0102
370
              15
390
0
  6
Continuous
 62
               7
100
AcDbVertex
100
AcDb2dVertex
 10
-567.86133640866456
 20
-374.30950432671716
 30
0.0
  0
VERTEX
  5
1C4
100
AcDbEntity
  8
PLT70-0102
370
              15
390
0
  6
Continuous
 62
               7
100
AcDbVertex
100
AcDb2dVertex
 10
-567.93870849687823
 20
-372.7312137377221
 30
0.0
  0
VERTEX
  5
1C5
100
AcDbEntity
  8
PLT70-0102
370
              15
390
0
  6
Continuous
 62
               7
100
AcDbVertex
100
AcDb2dVertex
 10
-567.99157737367113
 20
-370.86238733341725
 30
0.0
  0
VERTEX
  5
1C6
100
AcDbEntity
  8
PLT70-0102
370
              15
390
0
  6
Continuous
 62
               7
100
AcDbVertex
100
AcDb2dVertex
 10
-568.02537894918305
 20
-368.75933865921661
 30
0.0
  0
VERTEX
  5
1C7
100
AcDbEntity
  8
PLT70-0102
370
              15
390
0
  6
Continuous
 62
               7
100
AcDbVertex
100
AcDb2dVertex
 10
-568.03731204567089
 20
-367.36956785691132
 30
0.0
  0
SEQEND
  5
1C8
100
AcDbEntity
  8
PLT70-0102
370
              15
390
0
  6
Continuous
 62
               7
  0
ARC
  5
1C9
100
AcDbEntity
  8
PLT70-0102
370
              15
390
0
  6
Continuous
 62
               7
100
AcDbCircle
 10
-696.86611548754729
 20
84.508002799580723
 30
0.0
 40
3.0000000000043818
100
AcDbArc
 50
90.510271897623738
 51
180.0
  0
LINE
  5
1CA
100
AcDbEntity
  8
PLT70-0102
370
              15
390
0
  6
Continuous
 62
               7
100
AcDbLine
 10
-699.86611548753319
 20
-809.50270129011369
 30
0.0
 11
-699.86611548744793
 21
84.508002799580666
 31
0.0
  0
LINE
  5
1CB
100
AcDbEntity
  8
PLT70-0102
370
              15
390
0
  6
Continuous
 62
               7
100
AcDbLine
 10
-612.86611615707488
 20
-587.49639462472169
 30
0.0
 11
-612.86608634496463
 21
-137.61351326400006
 31
0.0
  0
LINE
  5
1CC
100
AcDbEntity
  8
PLT70-0102
370
              15
390
0
  6
Continuous
 62
               7
100
AcDbLine
 10
-572.86608094679593
 20
-587.3822552182703
 30
0.0
 11
-572.86608094679593
 21
-137.61053403115602
 31
0.0
  0
LINE
  5
1CD
100
AcDbEntity
  8
PLT70-0102
370
              15
390
0
  6
Continuous
 62
               7
100
AcDbLine
 10
305.30508040115956
 20
-364.32043255588815
 30
0.0
 11
305.30508040115956
 21
77.460720647292277
 31
0.0
  0
POLYLINE
  5
1CE
100
AcDbEntity
  8
PLT70-0102
370
              15
390
0
  6
Continuous
 62
               7
100
AcDb2dPolyline
 66
               1
 10
0.0
 20
0.0
 30
0.0
 75
               5
  0
VERTEX
  5
1CF
100
AcDbEntity
  8
PLT70-0102
370
              15
390
0
  6
Continuous
 62
               7
100
AcDbVertex
100
AcDb2dVertex
 10
310.30509840068453
 20
520.99552544482594
 30
0.0
  0
VERTEX
  5
1D0
100
AcDbEntity
  8
PLT70-0102
370
              15
390
0
  6
Continuous
 62
               7
100
AcDbVertex
100
AcDb2dVertex
 10
457.87755495477188
 20
520.99531411827502
 30
0.0
  0
VERTEX
  5
1D1
100
AcDbEntity
  8
PLT70-0102
370
              15
390
0
  6
Continuous
 62
               7
100
AcDbVertex
100
AcDb2dVertex
 10
474.4417703964051
 20
520.99573931313034
 30
0.0
  0
VERTEX
  5
1D2
100
AcDbEntity
  8
PLT70-0102
370
              15
390
0
  6
Continuous
 62
               7
100
AcDbVertex
100
AcDb2dVertex
 10
490.95983422896882
 20
521.4061213541554
 30
0.0
  0
VERTEX
  5
1D3
100
AcDbEntity
  8
PLT70-0102
370
              15
390
0
  6
Continuous
 62
               7
100
AcDbVertex
100
AcDb2dVertex
 10
507.3533512684013
 20
522.71430380555148
 30
0.0
  0
VERTEX
  5
1D4
100
AcDbEntity
  8
PLT70-0102
370
              15
390
0
  6
Continuous
 62
               7
100
AcDbVertex
100
AcDb2dVertex
 10
523.5864228395518
 20
524.90732317844777
 30
0.0
  0
VERTEX
  5
1D5
100
AcDbEntity
  8
PLT70-0102
370
              15
390
0
  6
Continuous
 62
               7
100
AcDbVertex
100
AcDb2dVertex
 10
539.62392760306886
 20
527.97203576123184
 30
0.0
  0
VERTEX
  5
1D6
100
AcDbEntity
  8
PLT70-0102
370
              15
390
0
  6
Continuous
 62
               7
100
AcDbVertex
100
AcDb2dVertex
 10
555.43129563350578
 20
531.89252127826012
 30
0.0
  0
VERTEX
  5
1D7
100
AcDbEntity
  8
PLT70-0102
370
              15
390
0
  6
Continuous
 62
               7
100
AcDbVertex
100
AcDb2dVertex
 10
570.97421361889121
 20
536.6531667348595
 30
0.0
  0
VERTEX
  5
1D8
100
AcDbEntity
  8
PLT70-0102
370
              15
390
0
  6
Continuous
 62
               7
100
AcDbVertex
100
AcDb2dVertex
 10
588.73293508490053
 20
543.25479144862629
 30
0.0
  0
VERTEX
  5
1D9
100
AcDbEntity
  8
PLT70-0102
370
              15
390
0
  6
Continuous
 62
               7
100
AcDbVertex
100
AcDb2dVertex
 10
606.04656955289659
 20
550.97349423025707
 30
0.0
  0
VERTEX
  5
1DA
100
AcDbEntity
  8
PLT70-0102
370
              15
390
0
  6
Continuous
 62
               7
100
AcDbVertex
100
AcDb2dVertex
 10
622.8707818382677
 20
559.79691074393531
 30
0.0
  0
VERTEX
  5
1DB
100
AcDbEntity
  8
PLT70-0102
370
              15
390
0
  6
Continuous
 62
               7
100
AcDbVertex
100
AcDb2dVertex
 10
639.14943461927885
 20
569.69903632862327
 30
0.0
  0
VERTEX
  5
1DC
100
AcDbEntity
  8
PLT70-0102
370
              15
390
0
  6
Continuous
 62
               7
100
AcDbVertex
100
AcDb2dVertex
 10
654.8150079396836
 20
580.64202623914127
 30
0.0
  0
VERTEX
  5
1DD
100
AcDbEntity
  8
PLT70-0102
370
              15
390
0
  6
Continuous
 62
               7
100
AcDbVertex
100
AcDb2dVertex
 10
669.78569446755807
 20
592.57996036834868
 30
0.0
  0
VERTEX
  5
1DE
100
AcDbEntity
  8
PLT70-0102
370
              15
390
0
  6
Continuous
 62
               7
100
AcDbVertex
100
AcDb2dVertex
 10
683.18671910598448
 20
604.70245579242885
 30
0.0
  0
VERTEX
  5
1DF
100
AcDbEntity
  8
PLT70-0102
370
              15
390
0
  6
Continuous
 62
               7
100
AcDbVertex
100
AcDb2dVertex
 10
695.83278711665196
 20
617.6150401565593
 30
0.0
  0
VERTEX
  5
1E0
100
AcDbEntity
  8
PLT70-0102
370
              15
390
0
  6
Continuous
 62
               7
100
AcDbVertex
100
AcDb2dVertex
 10
707.67347708685145
 20
631.26033358603593
 30
0.0
  0
VERTEX
  5
1E1
100
AcDbEntity
  8
PLT70-0102
370
              15
390
0
  6
Continuous
 62
               7
100
AcDbVertex
100
AcDb2dVertex
 10
718.66078662376674
 20
645.57640226483102
 30
0.0
  0
VERTEX
  5
1E2
100
AcDbEntity
  8
PLT70-0102
370
              15
390
0
  6
Continuous
 62
               7
100
AcDbVertex
100
AcDb2dVertex
 10
728.75143419165931
 20
660.49168697296921
 30
0.0
  0
SEQEND
  5
1E3
100
AcDbEntity
  8
PLT70-0102
370
              15
390
0
  6
Continuous
 62
               7
  0
POLYLINE
  5
1E4
100
AcDbEntity
  8
PLT70-0102
370
              15
390
0
  6
Continuous
 62
               7
100
AcDb2dPolyline
 66
               1
 10
0.0
 20
0.0
 30
0.0
 75
               5
  0
VERTEX
  5
1E5
100
AcDbEntity
  8
PLT70-0102
370
              15
390
0
  6
Continuous
 62
               7
100
AcDbVertex
100
AcDb2dVertex
 10
315.30509901748792
 20
530.99552493362398
 30
0.0
  0
VERTEX
  5
1E6
100
AcDbEntity
  8
PLT70-0102
370
              15
390
0
  6
Continuous
 62
               7
100
AcDbVertex
100
AcDb2dVertex
 10
435.33783763778376
 20
530.99570038896491
 30
0.0
  0
VERTEX
  5
1E7
100
AcDbEntity
  8
PLT70-0102
370
              15
390
0
  6
Continuous
 62
               7
100
AcDbVertex
100
AcDb2dVertex
 10
454.20022212025845
 20
530.99534530716983
 30
0.0
  0
VERTEX
  5
1E8
100
AcDbEntity
  8
PLT70-0102
370
              15
390
0
  6
Continuous
 62
               7
100
AcDbVertex
100
AcDb2dVertex
 10
473.06351092690068
 20
530.99545787885336
 30
0.0
  0
VERTEX
  5
1E9
100
AcDbEntity
  8
PLT70-0102
370
              15
390
0
  6
Continuous
 62
               7
100
AcDbVertex
100
AcDb2dVertex
 10
491.31848038397595
 20
531.44002570176372
 30
0.0
  0
VERTEX
  5
1EA
100
AcDbEntity
  8
PLT70-0102
370
              15
390
0
  6
Continuous
 62
               7
100
AcDbVertex
100
AcDb2dVertex
 10
509.34622569455189
 20
533.00217180655227
 30
0.0
  0
VERTEX
  5
1EB
100
AcDbEntity
  8
PLT70-0102
370
              15
390
0
  6
Continuous
 62
               7
100
AcDbVertex
100
AcDb2dVertex
 10
527.16125097945553
 20
535.67050858996754
 30
0.0
  0
VERTEX
  5
1EC
100
AcDbEntity
  8
PLT70-0102
370
              15
390
0
  6
Continuous
 62
               7
100
AcDbVertex
100
AcDb2dVertex
 10
544.56375926216981
 20
539.38715621743813
 30
0.0
  0
VERTEX
  5
1ED
100
AcDbEntity
  8
PLT70-0102
370
              15
390
0
  6
Continuous
 62
               7
100
AcDbVertex
100
AcDb2dVertex
 10
561.66411413685512
 20
544.14884921883686
 30
0.0
  0
VERTEX
  5
1EE
100
AcDbEntity
  8
PLT70-0102
370
              15
390
0
  6
Continuous
 62
               7
100
AcDbVertex
100
AcDb2dVertex
 10
578.41400705545186
 20
549.93574582656765
 30
0.0
  0
VERTEX
  5
1EF
100
AcDbEntity
  8
PLT70-0102
370
              15
390
0
  6
Continuous
 62
               7
100
AcDbVertex
100
AcDb2dVertex
 10
594.77403308089026
 20
556.73626318177003
 30
0.0
  0
VERTEX
  5
1F0
100
AcDbEntity
  8
PLT70-0102
370
              15
390
0
  6
Continuous
 62
               7
100
AcDbVertex
100
AcDb2dVertex
 10
610.70762352759732
 20
564.5407759048253
 30
0.0
  0
VERTEX
  5
1F1
100
AcDbEntity
  8
PLT70-0102
370
              15
390
0
  6
Continuous
 62
               7
100
AcDbVertex
100
AcDb2dVertex
 10
626.17578262050165
 20
573.33577917544574
 30
0.0
  0
VERTEX
  5
1F2
100
AcDbEntity
  8
PLT70-0102
370
              15
390
0
  6
Continuous
 62
               7
100
AcDbVertex
100
AcDb2dVertex
 10
641.12305403220114
 20
583.09171416684933
 30
0.0
  0
VERTEX
  5
1F3
100
AcDbEntity
  8
PLT70-0102
370
              15
390
0
  6
Continuous
 62
               7
100
AcDbVertex
100
AcDb2dVertex
 10
655.48127460497506
 20
593.77023179903574
 30
0.0
  0
VERTEX
  5
1F4
100
AcDbEntity
  8
PLT70-0102
370
              15
390
0
  6
Continuous
 62
               7
100
AcDbVertex
100
AcDb2dVertex
 10
669.17102278766004
 20
605.32568607173118
 30
0.0
  0
VERTEX
  5
1F5
100
AcDbEntity
  8
PLT70-0102
370
              15
390
0
  6
Continuous
 62
               7
100
AcDbVertex
100
AcDb2dVertex
 10
682.12329452198071
 20
617.71434377787102
 30
0.0
  0
VERTEX
  5
1F6
100
AcDbEntity
  8
PLT70-0102
370
              15
390
0
  6
Continuous
 62
               7
100
AcDbVertex
100
AcDb2dVertex
 10
694.28467929138003
 20
630.88130832827858
 30
0.0
  0
VERTEX
  5
1F7
100
AcDbEntity
  8
PLT70-0102
370
              15
390
0
  6
Continuous
 62
               7
100
AcDbVertex
100
AcDb2dVertex
 10
705.60196866646572
 20
644.76445989866136
 30
0.0
  0
VERTEX
  5
1F8
100
AcDbEntity
  8
PLT70-0102
370
              15
390
0
  6
Continuous
 62
               7
100
AcDbVertex
100
AcDb2dVertex
 10
713.19253826315241
 20
655.15227288344988
 30
0.0
  0
VERTEX
  5
1F9
100
AcDbEntity
  8
PLT70-0102
370
              15
390
0
  6
Continuous
 62
               7
100
AcDbVertex
100
AcDb2dVertex
 10
720.30509901746052
 20
665.84513652683484
 30
0.0
  0
SEQEND
  5
1FA
100
AcDbEntity
  8
PLT70-0102
370
              15
390
0
  6
Continuous
 62
               7
  0
ARC
  5
1FB
100
AcDbEntity
  8
PLT70-0102
370
              15
390
0
  6
Continuous
 62
               7
100
AcDbCircle
 10
315.27794502799543
 20
785.76936974102716
 30
0.0
 40
229.99999999999713
100
AcDbArc
 50
270.00676438693569
 51
332.57744362070878
  0
ARC
  5
1FC
100
AcDbEntity
  8
PLT70-0102
370
              15
390
0
  6
Continuous
 62
               7
100
AcDbCircle
 10
315.27794502799543
 20
785.76936974102716
 30
0.0
 40
219.99999999997709
100
AcDbArc
 50
268.73357204392244
 51
337.15696295209256
  0
LINE
  5
1FD
100
AcDbEntity
  8
PLT70-0102
370
              15
390
0
  6
Continuous
 62
               7
100
AcDbLine
 10
305.30509901749701
 20
931.16672200316373
 30
0.0
 11
305.30509901749701
 21
560.8243302257647
 31
0.0
  0
LINE
  5
1FE
100
AcDbEntity
  8
PLT70-0102
370
              15
390
0
  6
Continuous
 62
               7
100
AcDbLine
 10
305.30509901749701
 20
525.99552544487824
 30
0.0
 11
305.30509901749701
 21
560.8243302257647
 31
0.0
  0
ARC
  5
1FF
100
AcDbEntity
  8
PLT70-0102
370
              15
390
0
  6
Continuous
 62
               7
100
AcDbCircle
 10
310.30509901749247
 20
525.99552544487824
 30
0.0
 40
4.9999999999954525
100
AcDbArc
 50
180.0
 51
270.0
  0
LINE
  5
200
100
AcDbEntity
  8
PLT70-0102
370
              15
390
0
  6
Continuous
 62
               7
100
AcDbLine
 10
315.30509901748792
 20
530.99552493362398
 30
0.0
 11
315.30509901748792
 21
555.76937134404989
 31
0.0
  0
ARC
  5
201
100
AcDbEntity
  8
PLT70-0102
370
              15
390
0
  6
Continuous
 62
               7
100
AcDbCircle
 10
310.30509901749247
 20
560.8243302257647
 30
0.0
 40
4.9999999999955422
100
AcDbArc
 50
88.733572044183845
 51
180.0
  0
LINE
  5
202
100
AcDbEntity
  8
PLT70-0102
370
              15
390
0
  6
Continuous
 62
               7
100
AcDbLine
 10
335.56489959014391
 20
1027.3101450547151
 30
0.0
 11
428.82271849132326
 21
1047.5982647594105
 31
0.0
  0
LINE
  5
203
100
AcDbEntity
  8
PLT70-0102
370
              15
390
0
  6
Continuous
 62
               7
100
AcDbLine
 10
428.30508040103643
 20
1057.9954624359925
 30
0.0
 11
327.30508040103734
 21
1057.9954624359925
 31
0.0
  0
ARC
  5
204
100
AcDbEntity
  8
PLT70-0102
370
              15
390
0
  6
Continuous
 62
               7
100
AcDbCircle
 10
315.27794502799543
 20
706.22168248773107
 30
0.0
 40
219.99999999999932
100
AcDbArc
 50
22.843037047907501
 51
81.9293330916787
  0
ARC
  5
205
100
AcDbEntity
  8
PLT70-0102
370
              15
390
0
  6
Continuous
 62
               7
100
AcDbCircle
 10
315.27794502799543
 20
706.22168248773107
 30
0.0
 40
230.00000000001242
100
AcDbArc
 50
26.34629382068589
 51
82.213058984245279
  0
POLYLINE
  5
206
100
AcDbEntity
  8
PLT70-0102
370
              15
390
0
  6
Continuous
 62
               7
100
AcDb2dPolyline
 66
               1
 10
0.0
 20
0.0
 30
0.0
 75
               5
  0
VERTEX
  5
207
100
AcDbEntity
  8
PLT70-0102
370
              15
390
0
  6
Continuous
 62
               7
100
AcDbVertex
100
AcDb2dVertex
 10
338.99801931787897
 20
965.45715854544198
 30
0.0
  0
VERTEX
  5
208
100
AcDbEntity
  8
PLT70-0102
370
              15
390
0
  6
Continuous
 62
               7
100
AcDbVertex
100
AcDb2dVertex
 10
355.6136120351797
 20
963.61598105117139
 30
0.0
  0
VERTEX
  5
209
100
AcDbEntity
  8
PLT70-0102
370
              15
390
0
  6
Continuous
 62
               7
100
AcDbVertex
100
AcDb2dVertex
 10
372.12487237995083
 20
960.6719446179369
 30
0.0
  0
VERTEX
  5
20A
100
AcDbEntity
  8
PLT70-0102
370
              15
390
0
  6
Continuous
 62
               7
100
AcDbVertex
100
AcDb2dVertex
 10
388.42695711535134
 20
956.65225584165512
 30
0.0
  0
VERTEX
  5
20B
100
AcDbEntity
  8
PLT70-0102
370
              15
390
0
  6
Continuous
 62
               7
100
AcDbVertex
100
AcDb2dVertex
 10
404.41502300465436
 20
951.58412131807211
 30
0.0
  0
VERTEX
  5
20C
100
AcDbEntity
  8
PLT70-0102
370
              15
390
0
  6
Continuous
 62
               7
100
AcDbVertex
100
AcDb2dVertex
 10
419.98422681096235
 20
945.49474764304762
 30
0.0
  0
VERTEX
  5
20D
100
AcDbEntity
  8
PLT70-0102
370
              15
390
0
  6
Continuous
 62
               7
100
AcDbVertex
100
AcDb2dVertex
 10
435.46773649789304
 20
938.20499459483528
 30
0.0
  0
VERTEX
  5
20E
100
AcDbEntity
  8
PLT70-0102
370
              15
390
0
  6
Continuous
 62
               7
100
AcDbVertex
100
AcDb2dVertex
 10
450.48021408266879
 20
929.87120601115123
 30
0.0
  0
VERTEX
  5
20F
100
AcDbEntity
  8
PLT70-0102
370
              15
390
0
  6
Continuous
 62
               7
100
AcDbVertex
100
AcDb2dVertex
 10
464.92733031286991
 20
920.55576848796647
 30
0.0
  0
VERTEX
  5
210
100
AcDbEntity
  8
PLT70-0102
370
              15
390
0
  6
Continuous
 62
               7
100
AcDbVertex
100
AcDb2dVertex
 10
478.71475593579237
 20
910.32106862176363
 30
0.0
  0
VERTEX
  5
211
100
AcDbEntity
  8
PLT70-0102
370
              15
390
0
  6
Continuous
 62
               7
100
AcDbVertex
100
AcDb2dVertex
 10
491.74816169878898
 20
899.2294930082295
 30
0.0
  0
VERTEX
  5
212
100
AcDbEntity
  8
PLT70-0102
370
              15
390
0
  6
Continuous
 62
               7
100
AcDbVertex
100
AcDb2dVertex
 10
504.17547536566519
 20
887.11476651756414
 30
0.0
  0
VERTEX
  5
213
100
AcDbEntity
  8
PLT70-0102
370
              15
390
0
  6
Continuous
 62
               7
100
AcDbVertex
100
AcDb2dVertex
 10
515.80302654086029
 20
874.15090467832499
 30
0.0
  0
VERTEX
  5
214
100
AcDbEntity
  8
PLT70-0102
370
              15
390
0
  6
Continuous
 62
               7
100
AcDbVertex
100
AcDb2dVertex
 10
526.55466864119137
 20
860.42746062336448
 30
0.0
  0
VERTEX
  5
215
100
AcDbEntity
  8
PLT70-0102
370
              15
390
0
  6
Continuous
 62
               7
100
AcDbVertex
100
AcDb2dVertex
 10
536.35425508370292
 20
846.03398748462553
 30
0.0
  0
VERTEX
  5
216
100
AcDbEntity
  8
PLT70-0102
370
              15
390
0
  6
Continuous
 62
               7
100
AcDbVertex
100
AcDb2dVertex
 10
545.12563928549628
 20
831.06003839456264
 30
0.0
  0
VERTEX
  5
217
100
AcDbEntity
  8
PLT70-0102
370
              15
390
0
  6
Continuous
 62
               7
100
AcDbVertex
100
AcDb2dVertex
 10
552.73386281610658
 20
815.77781018197891
 30
0.0
  0
VERTEX
  5
218
100
AcDbEntity
  8
PLT70-0102
370
              15
390
0
  6
Continuous
 62
               7
100
AcDbVertex
100
AcDb2dVertex
 10
559.30993859917965
 20
800.00323832607899
 30
0.0
  0
VERTEX
  5
219
100
AcDbEntity
  8
PLT70-0102
370
              15
390
0
  6
Continuous
 62
               7
100
AcDbVertex
100
AcDb2dVertex
 10
564.79952497145734
 20
783.83945905236794
 30
0.0
  0
SEQEND
  5
21A
100
AcDbEntity
  8
PLT70-0102
370
              15
390
0
  6
Continuous
 62
               7
  0
ARC
  5
21B
100
AcDbEntity
  8
PLT70-0102
370
              15
390
0
  6
Continuous
 62
               7
100
AcDbCircle
 10
311.88795375167365
 20
695.88027653296933
 30
0.0
 40
260.30888950629179
100
AcDbArc
 50
19.111975841692768
 51
89.247840478648982
  0
LINE
  5
21C
100
AcDbEntity
  8
PLT70-0102
370
              15
390
0
  6
Continuous
 62
               7
100
AcDbLine
 10
730.30508040111408
 20
732.75106818249037
 30
0.0
 11
730.30508040111408
 21
1055.9954624358693
 31
0.0
  0
POLYLINE
  5
21D
100
AcDbEntity
  8
PLT70-0102
370
              15
390
0
  6
Continuous
 62
               7
100
AcDb2dPolyline
 66
               1
 10
0.0
 20
0.0
 30
0.0
 75
               5
  0
VERTEX
  5
21E
100
AcDbEntity
  8
PLT70-0102
370
              15
390
0
  6
Continuous
 62
               7
100
AcDbVertex
100
AcDb2dVertex
 10
720.30509901746052
 20
673.20242849044973
 30
0.0
  0
VERTEX
  5
21F
100
AcDbEntity
  8
PLT70-0102
370
              15
390
0
  6
Continuous
 62
               7
100
AcDbVertex
100
AcDb2dVertex
 10
665.30539806130116
 20
675.02171391894592
 30
0.0
  0
VERTEX
  5
220
100
AcDbEntity
  8
PLT70-0102
370
              15
390
0
  6
Continuous
 62
               7
100
AcDbVertex
100
AcDb2dVertex
 10
605.88111725608417
 20
676.98650466233232
 30
0.0
  0
VERTEX
  5
221
100
AcDbEntity
  8
PLT70-0102
370
              15
390
0
  6
Continuous
 62
               7
100
AcDbVertex
100
AcDb2dVertex
 10
562.65746649499181
 20
678.41504228304359
 30
0.0
  0
VERTEX
  5
222
100
AcDbEntity
  8
PLT70-0102
370
              15
390
0
  6
Continuous
 62
               7
100
AcDbVertex
100
AcDb2dVertex
 10
519.43379793127963
 20
679.8430383281385
 30
0.0
  0
SEQEND
  5
223
100
AcDbEntity
  8
PLT70-0102
370
              15
390
0
  6
Continuous
 62
               7
  0
POLYLINE
  5
224
100
AcDbEntity
  8
PLT70-0102
370
              15
390
0
  6
Continuous
 62
               7
100
AcDb2dPolyline
 66
               1
 10
0.0
 20
0.0
 30
0.0
 75
               5
  0
VERTEX
  5
225
100
AcDbEntity
  8
PLT70-0102
370
              15
390
0
  6
Continuous
 62
               7
100
AcDbVertex
100
AcDb2dVertex
 10
728.37122934525121
 20
682.94210984854828
 30
0.0
  0
VERTEX
  5
226
100
AcDbEntity
  8
PLT70-0102
370
              15
390
0
  6
Continuous
 62
               7
100
AcDbVertex
100
AcDb2dVertex
 10
695.51180019707624
 20
684.02921602152276
 30
0.0
  0
VERTEX
  5
227
100
AcDbEntity
  8
PLT70-0102
370
              15
390
0
  6
Continuous
 62
               7
100
AcDbVertex
100
AcDb2dVertex
 10
660.71849197235531
 20
685.18002120866015
 30
0.0
  0
VERTEX
  5
228
100
AcDbEntity
  8
PLT70-0102
370
              15
390
0
  6
Continuous
 62
               7
100
AcDbVertex
100
AcDb2dVertex
 10
625.92517373529154
 20
686.33052387432656
 30
0.0
  0
VERTEX
  5
229
100
AcDbEntity
  8
PLT70-0102
370
              15
390
0
  6
Continuous
 62
               7
100
AcDbVertex
100
AcDb2dVertex
 10
591.13184498037629
 20
687.48070850282659
 30
0.0
  0
VERTEX
  5
22A
100
AcDbEntity
  8
PLT70-0102
370
              15
390
0
  6
Continuous
 62
               7
100
AcDbVertex
100
AcDb2dVertex
 10
531.08346905188785
 20
689.46496682756617
 30
0.0
  0
SEQEND
  5
22B
100
AcDbEntity
  8
PLT70-0102
370
              15
390
0
  6
Continuous
 62
               7
  0
LINE
  5
22C
100
AcDbEntity
  8
PLT70-0102
370
              15
390
0
  6
Continuous
 62
               7
100
AcDbLine
 10
730.30509901745143
 20
681.69977838145144
 30
0.0
 11
730.30509901745143
 21
745.75113186095075
 31
0.0
  0
ARC
  5
22D
100
AcDbEntity
  8
PLT70-0102
370
              15
390
0
  6
Continuous
 62
               7
100
AcDbCircle
 10
720.30509901746052
 20
665.84513652683472
 30
0.0
 40
9.9999999999908731
100
AcDbArc
 50
327.63269153878502
 51
0.0
  0
POLYLINE
  5
22E
100
AcDbEntity
  8
PLT70-0102
370
              15
390
0
  6
Continuous
 62
               7
100
AcDb2dPolyline
 66
               1
 10
0.0
 20
0.0
 30
0.0
 75
               5
  0
VERTEX
  5
22F
100
AcDbEntity
  8
PLT70-0102
370
              15
390
0
  6
Continuous
 62
               7
100
AcDbVertex
100
AcDb2dVertex
 10
728.37122934525121
 20
682.94210984854828
 30
0.0
  0
VERTEX
  5
230
100
AcDbEntity
  8
PLT70-0102
370
              15
390
0
  6
Continuous
 62
               7
100
AcDbVertex
100
AcDb2dVertex
 10
729.02909371269141
 20
682.80754514567263
 30
0.0
  0
VERTEX
  5
231
100
AcDbEntity
  8
PLT70-0102
370
              15
390
0
  6
Continuous
 62
               7
100
AcDbVertex
100
AcDb2dVertex
 10
729.60533258530256
 20
682.46281336886625
 30
0.0
  0
VERTEX
  5
232
100
AcDbEntity
  8
PLT70-0102
370
              15
390
0
  6
Continuous
 62
               7
100
AcDbVertex
100
AcDb2dVertex
 10
730.03502238416638
 20
681.94675825427851
 30
0.0
  0
VERTEX
  5
233
100
AcDbEntity
  8
PLT70-0102
370
              15
390
0
  6
Continuous
 62
               7
100
AcDbVertex
100
AcDb2dVertex
 10
730.26972521260257
 20
681.31749916344972
 30
0.0
  0
VERTEX
  5
234
100
AcDbEntity
  8
PLT70-0102
370
              15
390
0
  6
Continuous
 62
               7
100
AcDbVertex
100
AcDb2dVertex
 10
730.30509901745143
 20
680.94296369955885
 30
0.0
  0
SEQEND
  5
235
100
AcDbEntity
  8
PLT70-0102
370
              15
390
0
  6
Continuous
 62
               7
  0
LINE
  5
236
100
AcDbEntity
  8
PLT70-0102
370
              15
390
0
  6
Continuous
 62
               7
100
AcDbLine
 10
730.30509901745143
 20
681.29820375842485
 30
0.0
 11
730.30509901745143
 21
681.69977838145144
 31
0.0
  0
LINE
  5
237
100
AcDbEntity
  8
PLT70-0102
370
              15
390
0
  6
Continuous
 62
               7
100
AcDbLine
 10
720.30509901746052
 20
673.20242849044973
 30
0.0
 11
720.30509901746052
 21
665.84513652683484
 31
0.0
  0
LINE
  5
238
100
AcDbEntity
  8
PLT70-0102
370
              15
390
0
  6
Continuous
 62
               7
100
AcDbLine
 10
730.30509901745143
 20
665.84513652683484
 30
0.0
 11
730.30509901745143
 21
680.94296369955885
 31
0.0
  0
ARC
  5
239
100
AcDbEntity
  8
PLT70-0102
370
              15
390
0
  6
Continuous
 62
               7
100
AcDbCircle
 10
431.77460391886245
 20
763.91508303985654
 30
0.0
 40
100.00000000001288
100
AcDbArc
 50
17.999198626296948
 51
26.346293820678927
  0
ARC
  5
23A
100
AcDbEntity
  8
PLT70-0102
370
              15
390
0
  6
Continuous
 62
               7
100
AcDbCircle
 10
545.9019045151
 20
800.99552611447132
 30
0.0
 40
19.999999999981711
100
AcDbArc
 50
197.99919862631748
 51
270.0
  0
ARC
  5
23B
100
AcDbEntity
  8
PLT70-0102
370
              15
390
0
  6
Continuous
 62
               7
100
AcDbCircle
 10
538.69094557436813
 20
718.49552611443255
 30
0.0
 40
4.9999999999827196
100
AcDbArc
 50
90.0
 51
155.41308135247769
  0
ARC
  5
23C
100
AcDbEntity
  8
PLT70-0102
370
              15
390
0
  6
Continuous
 62
               7
100
AcDbCircle
 10
545.9019045151
 20
690.99552611445733
 30
0.0
 40
19.999999999977831
100
AcDbArc
 50
90.0
 51
162.00080137368252
  0
ARC
  5
23D
100
AcDbEntity
  8
PLT70-0102
370
              15
390
0
  6
Continuous
 62
               7
100
AcDbCircle
 10
538.69094557436813
 20
773.4955261143258
 30
0.0
 40
4.9999999999954836
100
AcDbArc
 50
204.58691864752154
 51
270.0
  0
LINE
  5
23E
100
AcDbEntity
  8
PLT70-0102
370
              15
390
0
  6
Continuous
 62
               7
100
AcDbLine
 10
560.30509901749258
 20
765.06391868444177
 30
0.0
 11
560.30509901749258
 21
722.49552611445165
 31
0.0
  0
LINE
  5
23F
100
AcDbEntity
  8
PLT70-0102
370
              15
390
0
  6
Continuous
 62
               7
100
AcDbLine
 10
588.30509901749713
 20
722.49552611445165
 30
0.0
 11
588.30509901749713
 21
769.49552611447723
 31
0.0
  0
LINE
  5
240
100
AcDbEntity
  8
PLT70-0102
370
              15
390
0
  6
Continuous
 62
               7
100
AcDbLine
 10
546.69094557440633
 20
722.49552611445165
 30
0.0
 11
546.69094557440633
 21
765.3074904007243
 31
0.0
  0
LINE
  5
241
100
AcDbEntity
  8
PLT70-0102
370
              15
390
0
  6
Continuous
 62
               7
100
AcDbLine
 10
588.30509901748349
 20
722.49552611445165
 30
0.0
 11
588.30509901748349
 21
711.99552611447245
 31
0.0
  0
ARC
  5
242
100
AcDbEntity
  8
PLT70-0102
370
              15
390
0
  6
Continuous
 62
               7
100
AcDbCircle
 10
587.30509901750713
 20
711.99552611447245
 30
0.0
 40
0.9999999999763531
100
AcDbArc
 50
270.0
 51
0.0
  0
LINE
  5
243
100
AcDbEntity
  8
PLT70-0102
370
              15
390
0
  6
Continuous
 62
               7
100
AcDbLine
 10
545.9019045151
 20
710.99552611443926
 30
0.0
 11
587.30509901750713
 21
710.9955261144961
 31
0.0
  0
LINE
  5
244
100
AcDbEntity
  8
PLT70-0102
370
              15
390
0
  6
Continuous
 62
               7
100
AcDbLine
 10
559.30509901745938
 20
721.4955261144753
 30
0.0
 11
547.69094557438268
 21
721.4955261144753
 31
0.0
  0
ARC
  5
245
100
AcDbEntity
  8
PLT70-0102
370
              15
390
0
  6
Continuous
 62
               7
100
AcDbCircle
 10
547.69094557438268
 20
722.49552611445165
 30
0.0
 40
0.9999999999763531
100
AcDbArc
 50
180.0
 51
270.0
  0
LINE
  5
246
100
AcDbEntity
  8
PLT70-0102
370
              15
390
0
  6
Continuous
 62
               7
100
AcDbLine
 10
545.69094557448682
 20
723.49552611454169
 30
0.0
 11
538.69094557436813
 21
723.49552611454169
 31
0.0
  0
ARC
  5
247
100
AcDbEntity
  8
PLT70-0102
370
              15
390
0
  6
Continuous
 62
               7
100
AcDbCircle
 10
545.69094557448682
 20
722.49552611445165
 30
0.0
 40
0.9999999999763531
100
AcDbArc
 50
0.0
 51
90.0
  0
LINE
  5
248
100
AcDbEntity
  8
PLT70-0102
370
              15
390
0
  6
Continuous
 62
               7
100
AcDbLine
 10
587.30509901750713
 20
723.495526114428
 30
0.0
 11
561.30509901746893
 21
723.49552611454169
 31
0.0
  0
ARC
  5
249
100
AcDbEntity
  8
PLT70-0102
370
              15
390
0
  6
Continuous
 62
               7
100
AcDbCircle
 10
587.30509901750713
 20
722.49552611445165
 30
0.0
 40
0.9999999999763531
100
AcDbArc
 50
0.0
 51
90.0
  0
ARC
  5
24A
100
AcDbEntity
  8
PLT70-0102
370
              15
390
0
  6
Continuous
 62
               7
100
AcDbCircle
 10
561.30509901746893
 20
722.49552611445165
 30
0.0
 40
0.9999999999763531
100
AcDbArc
 50
90.0
 51
180.0
  0
ARC
  5
24B
100
AcDbEntity
  8
PLT70-0102
370
              15
390
0
  6
Continuous
 62
               7
100
AcDbCircle
 10
559.30509901745938
 20
722.49552611445165
 30
0.0
 40
0.9999999999763531
100
AcDbArc
 50
270.0
 51
0.0
  0
LINE
  5
24C
100
AcDbEntity
  8
PLT70-0102
370
              15
390
0
  6
Continuous
 62
               7
100
AcDbLine
 10
546.69094557440633
 20
769.49552611447723
 30
0.0
 11
546.69094557440633
 21
780.99552611443266
 31
0.0
  0
LINE
  5
24D
100
AcDbEntity
  8
PLT70-0102
370
              15
390
0
  6
Continuous
 62
               7
100
AcDbLine
 10
560.30509901749258
 20
776.80186739477529
 30
0.0
 11
560.30509901749258
 21
769.49552611447723
 31
0.0
  0
LINE
  5
24E
100
AcDbEntity
  8
PLT70-0102
370
              15
390
0
  6
Continuous
 62
               7
100
AcDbLine
 10
588.30509901748349
 20
779.99552611445631
 30
0.0
 11
588.30509901748349
 21
769.49552611447723
 31
0.0
  0
LINE
  5
24F
100
AcDbEntity
  8
PLT70-0102
370
              15
390
0
  6
Continuous
 62
               7
100
AcDbLine
 10
560.30509901749258
 20
769.49552611447723
 30
0.0
 11
560.30509901749258
 21
765.06391868444177
 31
0.0
  0
POLYLINE
  5
250
100
AcDbEntity
  8
PLT70-0102
370
              15
390
0
  6
Continuous
 62
               7
100
AcDb2dPolyline
 66
               1
 10
0.0
 20
0.0
 30
0.0
 75
               5
  0
VERTEX
  5
251
100
AcDbEntity
  8
PLT70-0102
370
              15
390
0
  6
Continuous
 62
               7
100
AcDbVertex
100
AcDb2dVertex
 10
560.30509901749258
 20
765.06391868444177
 30
0.0
  0
VERTEX
  5
252
100
AcDbEntity
  8
PLT70-0102
370
              15
390
0
  6
Continuous
 62
               7
100
AcDbVertex
100
AcDb2dVertex
 10
560.28588429789227
 20
765.22221906092534
 30
0.0
  0
VERTEX
  5
253
100
AcDbEntity
  8
PLT70-0102
370
              15
390
0
  6
Continuous
 62
               7
100
AcDbVertex
100
AcDb2dVertex
 10
560.2289785499953
 20
765.37443604267162
 30
0.0
  0
VERTEX
  5
254
100
AcDbEntity
  8
PLT70-0102
370
              15
390
0
  6
Continuous
 62
               7
100
AcDbVertex
100
AcDb2dVertex
 10
560.13656862976734
 20
765.51472001657737
 30
0.0
  0
VERTEX
  5
255
100
AcDbEntity
  8
PLT70-0102
370
              15
390
0
  6
Continuous
 62
               7
100
AcDbVertex
100
AcDb2dVertex
 10
560.01220579865151
 20
765.63767994802299
 30
0.0
  0
VERTEX
  5
256
100
AcDbEntity
  8
PLT70-0102
370
              15
390
0
  6
Continuous
 62
               7
100
AcDbVertex
100
AcDb2dVertex
 10
559.86066925047783
 20
765.73859055586433
 30
0.0
  0
VERTEX
  5
257
100
AcDbEntity
  8
PLT70-0102
370
              15
390
0
  6
Continuous
 62
               7
100
AcDbVertex
100
AcDb2dVertex
 10
559.68778244986527
 20
765.81357390203118
 30
0.0
  0
VERTEX
  5
258
100
AcDbEntity
  8
PLT70-0102
370
              15
390
0
  6
Continuous
 62
               7
100
AcDbVertex
100
AcDb2dVertex
 10
559.50018933945432
 20
765.85974841877112
 30
0.0
  0
VERTEX
  5
259
100
AcDbEntity
  8
PLT70-0102
370
              15
390
0
  6
Continuous
 62
               7
100
AcDbVertex
100
AcDb2dVertex
 10
559.30509901745938
 20
765.87533964497277
 30
0.0
  0
SEQEND
  5
25A
100
AcDbEntity
  8
PLT70-0102
370
              15
390
0
  6
Continuous
 62
               7
  0
POLYLINE
  5
25B
100
AcDbEntity
  8
PLT70-0102
370
              15
390
0
  6
Continuous
 62
               7
100
AcDb2dPolyline
 66
               1
 10
0.0
 20
0.0
 30
0.0
 75
               5
  0
VERTEX
  5
25C
100
AcDbEntity
  8
PLT70-0102
370
              15
390
0
  6
Continuous
 62
               7
100
AcDbVertex
100
AcDb2dVertex
 10
547.69094557438268
 20
766.12927611516022
 30
0.0
  0
VERTEX
  5
25D
100
AcDbEntity
  8
PLT70-0102
370
              15
390
0
  6
Continuous
 62
               7
100
AcDbVertex
100
AcDb2dVertex
 10
550.849426955475
 20
766.07891488155553
 30
0.0
  0
VERTEX
  5
25E
100
AcDbEntity
  8
PLT70-0102
370
              15
390
0
  6
Continuous
 62
               7
100
AcDbVertex
100
AcDb2dVertex
 10
555.04627237625402
 20
765.99232887773803
 30
0.0
  0
VERTEX
  5
25F
100
AcDbEntity
  8
PLT70-0102
370
              15
390
0
  6
Continuous
 62
               7
100
AcDbVertex
100
AcDb2dVertex
 10
559.30509901745938
 20
765.87533964497277
 30
0.0
  0
SEQEND
  5
260
100
AcDbEntity
  8
PLT70-0102
370
              15
390
0
  6
Continuous
 62
               7
  0
POLYLINE
  5
261
100
AcDbEntity
  8
PLT70-0102
370
              15
390
0
  6
Continuous
 62
               7
100
AcDb2dPolyline
 66
               1
 10
0.0
 20
0.0
 30
0.0
 75
               5
  0
VERTEX
  5
262
100
AcDbEntity
  8
PLT70-0102
370
              15
390
0
  6
Continuous
 62
               7
100
AcDbVertex
100
AcDb2dVertex
 10
547.69094557438268
 20
766.12927611516022
 30
0.0
  0
VERTEX
  5
263
100
AcDbEntity
  8
PLT70-0102
370
              15
390
0
  6
Continuous
 62
               7
100
AcDbVertex
100
AcDb2dVertex
 10
547.49585525250143
 20
766.11348573303837
 30
0.0
  0
VERTEX
  5
264
100
AcDbEntity
  8
PLT70-0102
370
              15
390
0
  6
Continuous
 62
               7
100
AcDbVertex
100
AcDb2dVertex
 10
547.30826214209048
 20
766.06672140233366
 30
0.0
  0
VERTEX
  5
265
100
AcDbEntity
  8
PLT70-0102
370
              15
390
0
  6
Continuous
 62
               7
100
AcDbVertex
100
AcDb2dVertex
 10
547.13537534136424
 20
765.99078025007282
 30
0.0
  0
VERTEX
  5
266
100
AcDbEntity
  8
PLT70-0102
370
              15
390
0
  6
Continuous
 62
               7
100
AcDbVertex
100
AcDb2dVertex
 10
546.98383879330424
 20
765.88858065205466
 30
0.0
  0
VERTEX
  5
267
100
AcDbEntity
  8
PLT70-0102
370
              15
390
0
  6
Continuous
 62
               7
100
AcDbVertex
100
AcDb2dVertex
 10
546.85947596218841
 20
765.76405008163727
 30
0.0
  0
VERTEX
  5
268
100
AcDbEntity
  8
PLT70-0102
370
              15
390
0
  6
Continuous
 62
               7
100
AcDbVertex
100
AcDb2dVertex
 10
546.7670660419036
 20
765.62197417863752
 30
0.0
  0
VERTEX
  5
269
100
AcDbEntity
  8
PLT70-0102
370
              15
390
0
  6
Continuous
 62
               7
100
AcDbVertex
100
AcDb2dVertex
 10
546.71016029406348
 20
765.46781284046426
 30
0.0
  0
VERTEX
  5
26A
100
AcDbEntity
  8
PLT70-0102
370
              15
390
0
  6
Continuous
 62
               7
100
AcDbVertex
100
AcDb2dVertex
 10
546.69094557446317
 20
765.30749040083799
 30
0.0
  0
SEQEND
  5
26B
100
AcDbEntity
  8
PLT70-0102
370
              15
390
0
  6
Continuous
 62
               7
  0
LINE
  5
26C
100
AcDbEntity
  8
PLT70-0102
370
              15
390
0
  6
Continuous
 62
               7
100
AcDbLine
 10
546.69094557440633
 20
765.3074904007243
 30
0.0
 11
546.69094557440633
 21
769.49552611447723
 31
0.0
  0
LINE
  5
26D
100
AcDbEntity
  8
PLT70-0102
370
              15
390
0
  6
Continuous
 62
               7
100
AcDbLine
 10
538.69094557436813
 20
768.49552611444403
 30
0.0
 11
545.69094557448682
 21
768.49552611444403
 31
0.0
  0
LINE
  5
26E
100
AcDbEntity
  8
PLT70-0102
370
              15
390
0
  6
Continuous
 62
               7
100
AcDbLine
 10
561.30509901746893
 20
768.49552611444403
 30
0.0
 11
587.30509901750713
 21
768.49552611450088
 31
0.0
  0
ARC
  5
26F
100
AcDbEntity
  8
PLT70-0102
370
              15
390
0
  6
Continuous
 62
               7
100
AcDbCircle
 10
561.30509901746893
 20
769.49552611447723
 30
0.0
 40
0.9999999999763531
100
AcDbArc
 50
180.0
 51
270.0
  0
ARC
  5
270
100
AcDbEntity
  8
PLT70-0102
370
              15
390
0
  6
Continuous
 62
               7
100
AcDbCircle
 10
545.69094557448682
 20
769.49552611447723
 30
0.0
 40
0.9999999999763531
100
AcDbArc
 50
270.0
 51
0.0
  0
ARC
  5
271
100
AcDbEntity
  8
PLT70-0102
370
              15
390
0
  6
Continuous
 62
               7
100
AcDbCircle
 10
587.30509901750713
 20
769.49552611447723
 30
0.0
 40
0.9999999999763531
100
AcDbArc
 50
270.0
 51
0.0
  0
POLYLINE
  5
272
100
AcDbEntity
  8
PLT70-0102
370
              15
390
0
  6
Continuous
 62
               7
100
AcDb2dPolyline
 66
               1
 10
0.0
 20
0.0
 30
0.0
 75
               5
  0
VERTEX
  5
273
100
AcDbEntity
  8
PLT70-0102
370
              15
390
0
  6
Continuous
 62
               7
100
AcDbVertex
100
AcDb2dVertex
 10
547.66971779018024
 20
778.27496909535819
 30
0.0
  0
VERTEX
  5
274
100
AcDbEntity
  8
PLT70-0102
370
              15
390
0
  6
Continuous
 62
               7
100
AcDbVertex
100
AcDb2dVertex
 10
547.35791013039591
 20
778.2987418866386
 30
0.0
  0
VERTEX
  5
275
100
AcDbEntity
  8
PLT70-0102
370
              15
390
0
  6
Continuous
 62
               7
100
AcDbVertex
100
AcDb2dVertex
 10
547.08399846138366
 20
778.36013989307583
 30
0.0
  0
VERTEX
  5
276
100
AcDbEntity
  8
PLT70-0102
370
              15
390
0
  6
Continuous
 62
               7
100
AcDbVertex
100
AcDb2dVertex
 10
546.86665307847636
 20
778.45330134287303
 30
0.0
  0
VERTEX
  5
277
100
AcDbEntity
  8
PLT70-0102
370
              15
390
0
  6
Continuous
 62
               7
100
AcDbVertex
100
AcDb2dVertex
 10
546.72665929119023
 20
778.57324560782524
 30
0.0
  0
VERTEX
  5
278
100
AcDbEntity
  8
PLT70-0102
370
              15
390
0
  6
Continuous
 62
               7
100
AcDbVertex
100
AcDb2dVertex
 10
546.69094557446317
 20
778.67602592025685
 30
0.0
  0
SEQEND
  5
279
100
AcDbEntity
  8
PLT70-0102
370
              15
390
0
  6
Continuous
 62
               7
  0
POLYLINE
  5
27A
100
AcDbEntity
  8
PLT70-0102
370
              15
390
0
  6
Continuous
 62
               7
100
AcDb2dPolyline
 66
               1
 10
0.0
 20
0.0
 30
0.0
 75
               5
  0
VERTEX
  5
27B
100
AcDbEntity
  8
PLT70-0102
370
              15
390
0
  6
Continuous
 62
               7
100
AcDbVertex
100
AcDb2dVertex
 10
547.66971779018024
 20
778.27496909535819
 30
0.0
  0
VERTEX
  5
27C
100
AcDbEntity
  8
PLT70-0102
370
              15
390
0
  6
Continuous
 62
               7
100
AcDbVertex
100
AcDb2dVertex
 10
548.59544828728178
 20
778.26644472075111
 30
0.0
  0
VERTEX
  5
27D
100
AcDbEntity
  8
PLT70-0102
370
              15
390
0
  6
Continuous
 62
               7
100
AcDbVertex
100
AcDb2dVertex
 10
550.49981592086726
 20
778.24702150136625
 30
0.0
  0
VERTEX
  5
27E
100
AcDbEntity
  8
PLT70-0102
370
              15
390
0
  6
Continuous
 62
               7
100
AcDbVertex
100
AcDb2dVertex
 10
552.40397028669906
 20
778.22484248694388
 30
0.0
  0
VERTEX
  5
27F
100
AcDbEntity
  8
PLT70-0102
370
              15
390
0
  6
Continuous
 62
               7
100
AcDbVertex
100
AcDb2dVertex
 10
554.30791137460221
 20
778.19960168776868
 30
0.0
  0
VERTEX
  5
280
100
AcDbEntity
  8
PLT70-0102
370
              15
390
0
  6
Continuous
 62
               7
100
AcDbVertex
100
AcDb2dVertex
 10
555.80753830575179
 20
778.17732513475755
 30
0.0
  0
VERTEX
  5
281
100
AcDbEntity
  8
PLT70-0102
370
              15
390
0
  6
Continuous
 62
               7
100
AcDbVertex
100
AcDb2dVertex
 10
560.08273564376952
 20
778.10779944994999
 30
0.0
  0
SEQEND
  5
282
100
AcDbEntity
  8
PLT70-0102
370
              15
390
0
  6
Continuous
 62
               7
  0
LINE
  5
283
100
AcDbEntity
  8
PLT70-0102
370
              15
390
0
  6
Continuous
 62
               7
100
AcDbLine
 10
546.69094557440633
 20
780.99552611443266
 30
0.0
 11
545.9019045151
 21
780.99552611443266
 31
0.0
  0
ARC
  5
284
100
AcDbEntity
  8
PLT70-0102
370
              15
390
0
  6
Continuous
 62
               7
100
AcDbCircle
 10
587.30509901750713
 20
779.99552611445631
 30
0.0
 40
0.9999999999763531
100
AcDbArc
 50
0.0
 51
90.0
  0
LINE
  5
285
100
AcDbEntity
  8
PLT70-0102
370
              15
390
0
  6
Continuous
 62
               7
100
AcDbLine
 10
587.30509901750713
 20
780.99552611443266
 30
0.0
 11
586.62882111406964
 21
780.99552611443266
 31
0.0
  0
ARC
  5
286
100
AcDbEntity
  8
PLT70-0102
370
              15
390
0
  6
Continuous
 62
               7
100
AcDbCircle
 10
568.62882111406964
 20
784.99552611433808
 30
0.0
 40
4.0000000000192015
100
AcDbArc
 50
196.79910036903138
 51
270.0
  0
POLYLINE
  5
287
100
AcDbEntity
  8
PLT70-0102
370
              15
390
0
  6
Continuous
 62
               7
100
AcDb2dPolyline
 66
               1
 10
0.0
 20
0.0
 30
0.0
 75
               5
  0
VERTEX
  5
288
100
AcDbEntity
  8
PLT70-0102
370
              15
390
0
  6
Continuous
 62
               7
100
AcDbVertex
100
AcDb2dVertex
 10
560.30509901749258
 20
776.80186739477529
 30
0.0
  0
VERTEX
  5
289
100
AcDbEntity
  8
PLT70-0102
370
              15
390
0
  6
Continuous
 62
               7
100
AcDbVertex
100
AcDb2dVertex
 10
560.02294967138698
 20
778.45892030436823
 30
0.0
  0
VERTEX
  5
28A
100
AcDbEntity
  8
PLT70-0102
370
              15
390
0
  6
Continuous
 62
               7
100
AcDbVertex
100
AcDb2dVertex
 10
559.20813149496428
 20
779.92915359286906
 30
0.0
  0
VERTEX
  5
28B
100
AcDbEntity
  8
PLT70-0102
370
              15
390
0
  6
Continuous
 62
               7
100
AcDbVertex
100
AcDb2dVertex
 10
558.03220297557675
 20
780.99552611443266
 30
0.0
  0
VERTEX
  5
28C
100
AcDbEntity
  8
PLT70-0102
370
              15
390
0
  6
Continuous
 62
               7
100
AcDbVertex
100
AcDb2dVertex
 10
557.84874667538463
 20
781.10941650485609
 30
0.0
  0
SEQEND
  5
28D
100
AcDbEntity
  8
PLT70-0102
370
              15
390
0
  6
Continuous
 62
               7
  0
ARC
  5
28E
100
AcDbEntity
  8
PLT70-0102
370
              15
390
0
  6
Continuous
 62
               7
100
AcDbCircle
 10
505.95502498337385
 20
733.47416100083672
 30
0.0
 40
30.999999999994994
100
AcDbArc
 50
306.72981327879501
 51
335.41308135247101
  0
ARC
  5
28F
100
AcDbEntity
  8
PLT70-0102
370
              15
390
0
  6
Continuous
 62
               7
100
AcDbCircle
 10
431.77460391886245
 20
728.07596918907245
 30
0.0
 40
99.999999999996334
100
AcDbArc
 50
341.32962283176414
 51
342.00080137370293
  0
ARC
  5
290
100
AcDbEntity
  8
PLT70-0102
370
              15
390
0
  6
Continuous
 62
               7
100
AcDbCircle
 10
536.45518033986593
 20
692.59946805724712
 30
0.0
 40
19.999999999999986
100
AcDbArc
 50
126.7298132787392
 51
157.1569629520786
  0
POLYLINE
  5
291
100
AcDbEntity
  8
PLT70-0102
370
              15
390
0
  6
Continuous
 62
               7
100
AcDb2dPolyline
 66
               1
 10
0.0
 20
0.0
 30
0.0
 75
               5
  0
VERTEX
  5
292
100
AcDbEntity
  8
PLT70-0102
370
              15
390
0
  6
Continuous
 62
               7
100
AcDbVertex
100
AcDb2dVertex
 10
526.51219523589009
 20
696.063646695373
 30
0.0
  0
VERTEX
  5
293
100
AcDbEntity
  8
PLT70-0102
370
              15
390
0
  6
Continuous
 62
               7
100
AcDbVertex
100
AcDb2dVertex
 10
526.24930727919593
 20
694.40495343784789
 30
0.0
  0
VERTEX
  5
294
100
AcDbEntity
  8
PLT70-0102
370
              15
390
0
  6
Continuous
 62
               7
100
AcDbVertex
100
AcDb2dVertex
 10
526.5502934451921
 20
692.75274222284509
 30
0.0
  0
VERTEX
  5
295
100
AcDbEntity
  8
PLT70-0102
370
              15
390
0
  6
Continuous
 62
               7
100
AcDbVertex
100
AcDb2dVertex
 10
527.3811909420748
 20
691.29348689436085
 30
0.0
  0
VERTEX
  5
296
100
AcDbEntity
  8
PLT70-0102
370
              15
390
0
  6
Continuous
 62
               7
100
AcDbVertex
100
AcDb2dVertex
 10
528.64810950175399
 20
690.19179324235722
 30
0.0
  0
VERTEX
  5
297
100
AcDbEntity
  8
PLT70-0102
370
              15
390
0
  6
Continuous
 62
               7
100
AcDbVertex
100
AcDb2dVertex
 10
530.20807469736485
 20
689.57170959223788
 30
0.0
  0
VERTEX
  5
298
100
AcDbEntity
  8
PLT70-0102
370
              15
390
0
  6
Continuous
 62
               7
100
AcDbVertex
100
AcDb2dVertex
 10
531.08346905188785
 20
689.46496682756617
 30
0.0
  0
SEQEND
  5
299
100
AcDbEntity
  8
PLT70-0102
370
              15
390
0
  6
Continuous
 62
               7
  0
ARC
  5
29A
100
AcDbEntity
  8
PLT70-0102
370
              15
390
0
  6
Continuous
 62
               7
100
AcDbCircle
 10
536.45518033986593
 20
799.39158417162469
 30
0.0
 40
19.999999999998678
100
AcDbArc
 50
202.84303704792117
 51
233.27018672126022
  0
ARC
  5
29B
100
AcDbEntity
  8
PLT70-0102
370
              15
390
0
  6
Continuous
 62
               7
100
AcDbCircle
 10
505.95502498337385
 20
758.51689122814912
 30
0.0
 40
30.99999999999547
100
AcDbArc
 50
24.586918647528652
 51
53.27018672120456
  0
LINE
  5
29C
100
AcDbEntity
  8
PLT70-0102
370
              15
390
0
  6
Continuous
 62
               7
100
AcDbLine
 10
728.30508040116138
 20
1057.9954624359925
 30
0.0
 11
449.57763698906706
 21
1057.9954624359925
 31
0.0
  0
ARC
  5
29D
100
AcDbEntity
  8
PLT70-0102
370
              15
390
0
  6
Continuous
 62
               7
100
AcDbCircle
 10
728.30508040116138
 20
1055.9954624358693
 30
0.0
 40
2.0000000000095497
100
AcDbArc
 50
0.0
 51
90.0
  0
LINE
  5
29E
100
AcDbEntity
  8
PLT70-0102
370
              15
390
0
  6
Continuous
 62
               7
100
AcDbLine
 10
430.30508040115978
 20
1055.9954624358693
 30
0.0
 11
430.30508040115978
 21
1049.5301164119678
 31
0.0
  0
ARC
  5
29F
100
AcDbEntity
  8
PLT70-0102
370
              15
390
0
  6
Continuous
 62
               7
100
AcDbCircle
 10
428.30508040103655
 20
1049.5301164119678
 30
0.0
 40
2.0000000000093823
100
AcDbArc
 50
285.00000000084634
 51
0.0
  0
LINE
  5
2A0
100
AcDbEntity
  8
PLT70-0102
370
              15
390
0
  6
Continuous
 62
               7
100
AcDbLine
 10
428.30508040103643
 20
1057.9954624359925
 30
0.0
 11
449.57763698906706
 21
1057.9954624359925
 31
0.0
  0
ARC
  5
2A1
100
AcDbEntity
  8
PLT70-0102
370
              15
390
0
  6
Continuous
 62
               7
100
AcDbCircle
 10
428.30508040103655
 20
1055.9954624358693
 30
0.0
 40
2.0000000000095497
100
AcDbArc
 50
0.0
 51
90.0
  0
POLYLINE
  5
2A2
100
AcDbEntity
  8
PLT70-0102
370
              15
390
0
  6
Continuous
 62
               7
100
AcDb2dPolyline
 66
               1
 10
0.0
 20
0.0
 30
0.0
 75
               5
  0
VERTEX
  5
2A3
100
AcDbEntity
  8
PLT70-0102
370
              15
390
0
  6
Continuous
 62
               7
100
AcDbVertex
100
AcDb2dVertex
 10
335.30508040113239
 20
990.49546243597524
 30
0.0
  0
VERTEX
  5
2A4
100
AcDbEntity
  8
PLT70-0102
370
              15
390
0
  6
Continuous
 62
               7
100
AcDbVertex
100
AcDb2dVertex
 10
335.30508040113239
 20
990.49546243608893
 30
0.0
  0
VERTEX
  5
2A5
100
AcDbEntity
  8
PLT70-0102
370
              15
390
0
  6
Continuous
 62
               7
100
AcDbVertex
100
AcDb2dVertex
 10
335.3401382630401
 20
990.91418279508252
 30
0.0
  0
VERTEX
  5
2A6
100
AcDbEntity
  8
PLT70-0102
370
              15
390
0
  6
Continuous
 62
               7
100
AcDbVertex
100
AcDb2dVertex
 10
335.41435445656509
 20
991.83154807500023
 30
0.0
  0
VERTEX
  5
2A7
100
AcDbEntity
  8
PLT70-0102
370
              15
390
0
  6
Continuous
 62
               7
100
AcDbVertex
100
AcDb2dVertex
 10
335.52021629495732
 20
993.2329602201853
 30
0.0
  0
VERTEX
  5
2A8
100
AcDbEntity
  8
PLT70-0102
370
              15
390
0
  6
Continuous
 62
               7
100
AcDbVertex
100
AcDb2dVertex
 10
335.64645305725583
 20
995.0835786620778
 30
0.0
  0
VERTEX
  5
2A9
100
AcDbEntity
  8
PLT70-0102
370
              15
390
0
  6
Continuous
 62
               7
100
AcDbVertex
100
AcDb2dVertex
 10
335.77849173903962
 20
997.32423741707726
 30
0.0
  0
VERTEX
  5
2AA
100
AcDbEntity
  8
PLT70-0102
370
              15
390
0
  6
Continuous
 62
               7
100
AcDbVertex
100
AcDb2dVertex
 10
335.90123282474372
 20
999.89131901887367
 30
0.0
  0
VERTEX
  5
2AB
100
AcDbEntity
  8
PLT70-0102
370
              15
390
0
  6
Continuous
 62
               7
100
AcDbVertex
100
AcDb2dVertex
 10
336.00157193425196
 20
1002.7121635897934
 30
0.0
  0
VERTEX
  5
2AC
100
AcDbEntity
  8
PLT70-0102
370
              15
390
0
  6
Continuous
 62
               7
100
AcDbVertex
100
AcDb2dVertex
 10
336.06754932154593
 20
1005.7135958689137
 30
0.0
  0
VERTEX
  5
2AD
100
AcDbEntity
  8
PLT70-0102
370
              15
390
0
  6
Continuous
 62
               7
100
AcDbVertex
100
AcDb2dVertex
 10
336.09263692264824
 20
1008.8067398827739
 30
0.0
  0
VERTEX
  5
2AE
100
AcDbEntity
  8
PLT70-0102
370
              15
390
0
  6
Continuous
 62
               7
100
AcDbVertex
100
AcDb2dVertex
 10
336.07272718942261
 20
1011.9152522114823
 30
0.0
  0
VERTEX
  5
2AF
100
AcDbEntity
  8
PLT70-0102
370
              15
390
0
  6
Continuous
 62
               7
100
AcDbVertex
100
AcDb2dVertex
 10
336.01108762744536
 20
1014.9416388860877
 30
0.0
  0
VERTEX
  5
2B0
100
AcDbEntity
  8
PLT70-0102
370
              15
390
0
  6
Continuous
 62
               7
100
AcDbVertex
100
AcDb2dVertex
 10
335.91362547801884
 20
1017.799291805803
 30
0.0
  0
VERTEX
  5
2B1
100
AcDbEntity
  8
PLT70-0102
370
              15
390
0
  6
Continuous
 62
               7
100
AcDbVertex
100
AcDb2dVertex
 10
335.79217976236953
 20
1020.4093479814865
 30
0.0
  0
VERTEX
  5
2B2
100
AcDbEntity
  8
PLT70-0102
370
              15
390
0
  6
Continuous
 62
               7
100
AcDbVertex
100
AcDb2dVertex
 10
335.66021238184396
 20
1022.6906414119148
 30
0.0
  0
VERTEX
  5
2B3
100
AcDbEntity
  8
PLT70-0102
370
              15
390
0
  6
Continuous
 62
               7
100
AcDbVertex
100
AcDb2dVertex
 10
335.53252870544759
 20
1024.5870865905736
 30
0.0
  0
SEQEND
  5
2B4
100
AcDbEntity
  8
PLT70-0102
370
              15
390
0
  6
Continuous
 62
               7
  0
POLYLINE
  5
2B5
100
AcDbEntity
  8
PLT70-0102
370
              15
390
0
  6
Continuous
 62
               7
100
AcDb2dPolyline
 66
               1
 10
0.0
 20
0.0
 30
0.0
 75
               5
  0
VERTEX
  5
2B6
100
AcDbEntity
  8
PLT70-0102
370
              15
390
0
  6
Continuous
 62
               7
100
AcDbVertex
100
AcDb2dVertex
 10
325.30508040114148
 20
1027.4954624360098
 30
0.0
  0
VERTEX
  5
2B7
100
AcDbEntity
  8
PLT70-0102
370
              15
390
0
  6
Continuous
 62
               7
100
AcDbVertex
100
AcDb2dVertex
 10
325.30508040114148
 20
1027.4954624358961
 30
0.0
  0
VERTEX
  5
2B8
100
AcDbEntity
  8
PLT70-0102
370
              15
390
0
  6
Continuous
 62
               7
100
AcDbVertex
100
AcDb2dVertex
 10
325.32310995484215
 20
1027.2651973054699
 30
0.0
  0
VERTEX
  5
2B9
100
AcDbEntity
  8
PLT70-0102
370
              15
390
0
  6
Continuous
 62
               7
100
AcDbVertex
100
AcDb2dVertex
 10
325.37994868053977
 20
1026.5170630339944
 30
0.0
  0
VERTEX
  5
2BA
100
AcDbEntity
  8
PLT70-0102
370
              15
390
0
  6
Continuous
 62
               7
100
AcDbVertex
100
AcDb2dVertex
 10
325.46763819843738
 20
1025.2759568959127
 30
0.0
  0
VERTEX
  5
2BB
100
AcDbEntity
  8
PLT70-0102
370
              15
390
0
  6
Continuous
 62
               7
100
AcDbVertex
100
AcDb2dVertex
 10
325.57530504911858
 20
1023.57334948991
 30
0.0
  0
VERTEX
  5
2BC
100
AcDbEntity
  8
PLT70-0102
370
              15
390
0
  6
Continuous
 62
               7
100
AcDbVertex
100
AcDb2dVertex
 10
325.68855480176273
 20
1021.4601963868708
 30
0.0
  0
VERTEX
  5
2BD
100
AcDbEntity
  8
PLT70-0102
370
              15
390
0
  6
Continuous
 62
               7
100
AcDbVertex
100
AcDb2dVertex
 10
325.79237820775609
 20
1018.9874256762173
 30
0.0
  0
VERTEX
  5
2BE
100
AcDbEntity
  8
PLT70-0102
370
              15
390
0
  6
Continuous
 62
               7
100
AcDbVertex
100
AcDb2dVertex
 10
325.87334583465611
 20
1016.2305181102929
 30
0.0
  0
VERTEX
  5
2BF
100
AcDbEntity
  8
PLT70-0102
370
              15
390
0
  6
Continuous
 62
               7
100
AcDbVertex
100
AcDb2dVertex
 10
325.91983867425745
 20
1013.2833911875159
 30
0.0
  0
VERTEX
  5
2C0
100
AcDbEntity
  8
PLT70-0102
370
              15
390
0
  6
Continuous
 62
               7
100
AcDbVertex
100
AcDb2dVertex
 10
325.92828336774949
 20
1010.2156766508037
 30
0.0
  0
VERTEX
  5
2C1
100
AcDbEntity
  8
PLT70-0102
370
              15
390
0
  6
Continuous
 62
               7
100
AcDbVertex
100
AcDb2dVertex
 10
325.89764905461527
 20
1007.105862119291
 30
0.0
  0
VERTEX
  5
2C2
100
AcDbEntity
  8
PLT70-0102
370
              15
390
0
  6
Continuous
 62
               7
100
AcDbVertex
100
AcDb2dVertex
 10
325.8346727748509
 20
1004.0505504693747
 30
0.0
  0
VERTEX
  5
2C3
100
AcDbEntity
  8
PLT70-0102
370
              15
390
0
  6
Continuous
 62
               7
100
AcDbVertex
100
AcDb2dVertex
 10
325.74819728833893
 20
1001.1337850512823
 30
0.0
  0
VERTEX
  5
2C4
100
AcDbEntity
  8
PLT70-0102
370
              15
390
0
  6
Continuous
 62
               7
100
AcDbVertex
100
AcDb2dVertex
 10
325.65027236691924
 20
998.43931860059092
 30
0.0
  0
VERTEX
  5
2C5
100
AcDbEntity
  8
PLT70-0102
370
              15
390
0
  6
Continuous
 62
               7
100
AcDbVertex
100
AcDb2dVertex
 10
325.5521121661551
 20
996.03865957911557
 30
0.0
  0
VERTEX
  5
2C6
100
AcDbEntity
  8
PLT70-0102
370
              15
390
0
  6
Continuous
 62
               7
100
AcDbVertex
100
AcDb2dVertex
 10
325.4632700471567
 20
994.00387579848575
 30
0.0
  0
VERTEX
  5
2C7
100
AcDbEntity
  8
PLT70-0102
370
              15
390
0
  6
Continuous
 62
               7
100
AcDbVertex
100
AcDb2dVertex
 10
325.39119839552689
 20
992.39712709990818
 30
0.0
  0
VERTEX
  5
2C8
100
AcDbEntity
  8
PLT70-0102
370
              15
390
0
  6
Continuous
 62
               7
100
AcDbVertex
100
AcDb2dVertex
 10
325.33961248876642
 20
991.259020717765
 30
0.0
  0
VERTEX
  5
2C9
100
AcDbEntity
  8
PLT70-0102
370
              15
390
0
  6
Continuous
 62
               7
100
AcDbVertex
100
AcDb2dVertex
 10
325.31379284691786
 20
990.68835395658743
 30
0.0
  0
VERTEX
  5
2CA
100
AcDbEntity
  8
PLT70-0102
370
              15
390
0
  6
Continuous
 62
               7
100
AcDbVertex
100
AcDb2dVertex
 10
325.30508040114148
 20
990.49546243597524
 30
0.0
  0
SEQEND
  5
2CB
100
AcDbEntity
  8
PLT70-0102
370
              15
390
0
  6
Continuous
 62
               7
  0
LINE
  5
2CC
100
AcDbEntity
  8
PLT70-0102
370
              15
390
0
  6
Continuous
 62
               7
100
AcDbLine
 10
305.30509901749701
 20
931.16672200316373
 30
0.0
 11
305.30509901749701
 21
965.99552611437787
 31
0.0
  0
POLYLINE
  5
2CD
100
AcDbEntity
  8
PLT70-0102
370
              15
390
0
  6
Continuous
 62
               7
100
AcDb2dPolyline
 66
               1
 10
0.0
 20
0.0
 30
0.0
 75
               5
  0
VERTEX
  5
2CE
100
AcDbEntity
  8
PLT70-0102
370
              15
390
0
  6
Continuous
 62
               7
100
AcDbVertex
100
AcDb2dVertex
 10
319.28687660130527
 20
926.18515324515158
 30
0.0
  0
VERTEX
  5
2CF
100
AcDbEntity
  8
PLT70-0102
370
              15
390
0
  6
Continuous
 62
               7
100
AcDbVertex
100
AcDb2dVertex
 10
319.4773186867028
 20
926.16750902093656
 30
0.0
  0
VERTEX
  5
2D0
100
AcDbEntity
  8
PLT70-0102
370
              15
390
0
  6
Continuous
 62
               7
100
AcDbVertex
100
AcDb2dVertex
 10
320.03777004215726
 20
926.11584297996217
 30
0.0
  0
VERTEX
  5
2D1
100
AcDbEntity
  8
PLT70-0102
370
              15
390
0
  6
Continuous
 62
               7
100
AcDbVertex
100
AcDb2dVertex
 10
320.95773613859001
 20
926.03164923216639
 30
0.0
  0
VERTEX
  5
2D2
100
AcDbEntity
  8
PLT70-0102
370
              15
390
0
  6
Continuous
 62
               7
100
AcDbVertex
100
AcDb2dVertex
 10
322.20551709546362
 20
925.9187485356307
 30
0.0
  0
VERTEX
  5
2D3
100
AcDbEntity
  8
PLT70-0102
370
              15
390
0
  6
Continuous
 62
               7
100
AcDbVertex
100
AcDb2dVertex
 10
323.75473778567175
 20
925.7806376894365
 30
0.0
  0
VERTEX
  5
2D4
100
AcDbEntity
  8
PLT70-0102
370
              15
390
0
  6
Continuous
 62
               7
100
AcDbVertex
100
AcDb2dVertex
 10
325.55404316728163
 20
925.6230804494777
 30
0.0
  0
VERTEX
  5
2D5
100
AcDbEntity
  8
PLT70-0102
370
              15
390
0
  6
Continuous
 62
               7
100
AcDbVertex
100
AcDb2dVertex
 10
327.60382634766393
 20
925.44740683397606
 30
0.0
  0
VERTEX
  5
2D6
100
AcDbEntity
  8
PLT70-0102
370
              15
390
0
  6
Continuous
 62
               7
100
AcDbVertex
100
AcDb2dVertex
 10
329.80255375097477
 20
925.26339842366099
 30
0.0
  0
VERTEX
  5
2D7
100
AcDbEntity
  8
PLT70-0102
370
              15
390
0
  6
Continuous
 62
               7
100
AcDbVertex
100
AcDb2dVertex
 10
332.05240198740603
 20
925.08001024342832
 30
0.0
  0
VERTEX
  5
2D8
100
AcDbEntity
  8
PLT70-0102
370
              15
390
0
  6
Continuous
 62
               7
100
AcDbVertex
100
AcDb2dVertex
 10
334.3215556089749
 20
924.89995758487851
 30
0.0
  0
VERTEX
  5
2D9
100
AcDbEntity
  8
PLT70-0102
370
              15
390
0
  6
Continuous
 62
               7
100
AcDbVertex
100
AcDb2dVertex
 10
336.54553051108314
 20
924.72843516564183
 30
0.0
  0
VERTEX
  5
2DA
100
AcDbEntity
  8
PLT70-0102
370
              15
390
0
  6
Continuous
 62
               7
100
AcDbVertex
100
AcDb2dVertex
 10
338.66215068426618
 20
924.56964219705071
 30
0.0
  0
VERTEX
  5
2DB
100
AcDbEntity
  8
PLT70-0102
370
              15
390
0
  6
Continuous
 62
               7
100
AcDbVertex
100
AcDb2dVertex
 10
340.60633770580216
 20
924.42773208635174
 30
0.0
  0
VERTEX
  5
2DC
100
AcDbEntity
  8
PLT70-0102
370
              15
390
0
  6
Continuous
 62
               7
100
AcDbVertex
100
AcDb2dVertex
 10
342.32817869188102
 20
924.30515119853283
 30
0.0
  0
VERTEX
  5
2DD
100
AcDbEntity
  8
PLT70-0102
370
              15
390
0
  6
Continuous
 62
               7
100
AcDbVertex
100
AcDb2dVertex
 10
343.77072114447492
 20
924.20474722636357
 30
0.0
  0
VERTEX
  5
2DE
100
AcDbEntity
  8
PLT70-0102
370
              15
390
0
  6
Continuous
 62
               7
100
AcDbVertex
100
AcDb2dVertex
 10
344.90175377366393
 20
924.12748318967317
 30
0.0
  0
VERTEX
  5
2DF
100
AcDbEntity
  8
PLT70-0102
370
              15
390
0
  6
Continuous
 62
               7
100
AcDbVertex
100
AcDb2dVertex
 10
345.68218851249264
 20
924.07490555965808
 30
0.0
  0
VERTEX
  5
2E0
100
AcDbEntity
  8
PLT70-0102
370
              15
390
0
  6
Continuous
 62
               7
100
AcDbVertex
100
AcDb2dVertex
 10
346.0978768962749
 20
924.04717289154235
 30
0.0
  0
VERTEX
  5
2E1
100
AcDbEntity
  8
PLT70-0102
370
              15
390
0
  6
Continuous
 62
               7
100
AcDbVertex
100
AcDb2dVertex
 10
346.16470465560121
 20
924.04272848583844
 30
0.0
  0
SEQEND
  5
2E2
100
AcDbEntity
  8
PLT70-0102
370
              15
390
0
  6
Continuous
 62
               7
  0
POLYLINE
  5
2E3
100
AcDbEntity
  8
PLT70-0102
370
              15
390
0
  6
Continuous
 62
               7
100
AcDb2dPolyline
 66
               1
 10
0.0
 20
0.0
 30
0.0
 75
               5
  0
VERTEX
  5
2E4
100
AcDbEntity
  8
PLT70-0102
370
              15
390
0
  6
Continuous
 62
               7
100
AcDbVertex
100
AcDb2dVertex
 10
346.44058877288751
 20
934.10079437573188
 30
0.0
  0
VERTEX
  5
2E5
100
AcDbEntity
  8
PLT70-0102
370
              15
390
0
  6
Continuous
 62
               7
100
AcDbVertex
100
AcDb2dVertex
 10
346.37256620747246
 20
934.1051864214279
 30
0.0
  0
VERTEX
  5
2E6
100
AcDbEntity
  8
PLT70-0102
370
              15
390
0
  6
Continuous
 62
               7
100
AcDbVertex
100
AcDb2dVertex
 10
345.95330743517559
 20
934.13233899682666
 30
0.0
  0
VERTEX
  5
2E7
100
AcDbEntity
  8
PLT70-0102
370
              15
390
0
  6
Continuous
 62
               7
100
AcDbVertex
100
AcDb2dVertex
 10
345.16721064145793
 20
934.18372838605421
 30
0.0
  0
VERTEX
  5
2E8
100
AcDbEntity
  8
PLT70-0102
370
              15
390
0
  6
Continuous
 62
               7
100
AcDbVertex
100
AcDb2dVertex
 10
344.0316595995032
 20
934.25895762855191
 30
0.0
  0
VERTEX
  5
2E9
100
AcDbEntity
  8
PLT70-0102
370
              15
390
0
  6
Continuous
 62
               7
100
AcDbVertex
100
AcDb2dVertex
 10
342.58362976189892
 20
934.35662140596207
 30
0.0
  0
VERTEX
  5
2EA
100
AcDbEntity
  8
PLT70-0102
370
              15
390
0
  6
Continuous
 62
               7
100
AcDbVertex
100
AcDb2dVertex
 10
340.85821344386068
 20
934.47553709766282
 30
0.0
  0
VERTEX
  5
2EB
100
AcDbEntity
  8
PLT70-0102
370
              15
390
0
  6
Continuous
 62
               7
100
AcDbVertex
100
AcDb2dVertex
 10
338.90936777025081
 20
934.61310520306426
 30
0.0
  0
VERTEX
  5
2EC
100
AcDbEntity
  8
PLT70-0102
370
              15
390
0
  6
Continuous
 62
               7
100
AcDbVertex
100
AcDb2dVertex
 10
336.75905800127202
 20
934.76897259635336
 30
0.0
  0
VERTEX
  5
2ED
100
AcDbEntity
  8
PLT70-0102
370
              15
390
0
  6
Continuous
 62
               7
100
AcDbVertex
100
AcDb2dVertex
 10
334.49759522947352
 20
934.93736963055483
 30
0.0
  0
VERTEX
  5
2EE
100
AcDbEntity
  8
PLT70-0102
370
              15
390
0
  6
Continuous
 62
               7
100
AcDbVertex
100
AcDb2dVertex
 10
332.20790480110372
 20
935.11264563185534
 30
0.0
  0
VERTEX
  5
2EF
100
AcDbEntity
  8
PLT70-0102
370
              15
390
0
  6
Continuous
 62
               7
100
AcDbVertex
100
AcDb2dVertex
 10
329.93758056617571
 20
935.29103081253027
 30
0.0
  0
VERTEX
  5
2F0
100
AcDbEntity
  8
PLT70-0102
370
              15
390
0
  6
Continuous
 62
               7
100
AcDbVertex
100
AcDb2dVertex
 10
327.75157632907258
 20
935.46720946344806
 30
0.0
  0
VERTEX
  5
2F1
100
AcDbEntity
  8
PLT70-0102
370
              15
390
0
  6
Continuous
 62
               7
100
AcDbVertex
100
AcDb2dVertex
 10
325.71075090366185
 20
935.6354825224372
 30
0.0
  0
VERTEX
  5
2F2
100
AcDbEntity
  8
PLT70-0102
370
              15
390
0
  6
Continuous
 62
               7
100
AcDbVertex
100
AcDb2dVertex
 10
323.8758623346971
 20
935.78996615222252
 30
0.0
  0
VERTEX
  5
2F3
100
AcDbEntity
  8
PLT70-0102
370
              15
390
0
  6
Continuous
 62
               7
100
AcDbVertex
100
AcDb2dVertex
 10
322.29597637630468
 20
935.92534667446046
 30
0.0
  0
VERTEX
  5
2F4
100
AcDbEntity
  8
PLT70-0102
370
              15
390
0
  6
Continuous
 62
               7
100
AcDbVertex
100
AcDb2dVertex
 10
321.02297804667933
 20
936.03603602972782
 30
0.0
  0
VERTEX
  5
2F5
100
AcDbEntity
  8
PLT70-0102
370
              15
390
0
  6
Continuous
 62
               7
100
AcDbVertex
100
AcDb2dVertex
 10
320.08514596609848
 20
936.11850298314323
 30
0.0
  0
VERTEX
  5
2F6
100
AcDbEntity
  8
PLT70-0102
370
              15
390
0
  6
Continuous
 62
               7
100
AcDbVertex
100
AcDb2dVertex
 10
319.51604429017698
 20
936.16890551707286
 30
0.0
  0
VERTEX
  5
2F7
100
AcDbEntity
  8
PLT70-0102
370
              15
390
0
  6
Continuous
 62
               7
100
AcDbVertex
100
AcDb2dVertex
 10
319.32268484278302
 20
936.18611469376276
 30
0.0
  0
SEQEND
  5
2F8
100
AcDbEntity
  8
PLT70-0102
370
              15
390
0
  6
Continuous
 62
               7
  0
LINE
  5
2F9
100
AcDbEntity
  8
PLT70-0102
370
              15
390
0
  6
Continuous
 62
               7
100
AcDbLine
 10
345.30509901746052
 20
933.11001562833837
 30
0.0
 11
345.30509901746052
 21
925.03282414944863
 31
0.0
  0
ARC
  5
2FA
100
AcDbEntity
  8
PLT70-0102
370
              15
390
0
  6
Continuous
 62
               7
100
AcDbCircle
 10
346.30509901738014
 20
925.03282414944863
 30
0.0
 40
0.9999999999834017
100
AcDbArc
 50
180.0
 51
261.92933309120025
  0
ARC
  5
2FB
100
AcDbEntity
  8
PLT70-0102
370
              15
390
0
  6
Continuous
 62
               7
100
AcDbCircle
 10
346.30509901738014
 20
933.11001562833837
 30
0.0
 40
0.9999999999765262
100
AcDbArc
 50
82.21305898527747
 51
180.0
  0
LINE
  5
2FC
100
AcDbEntity
  8
PLT70-0102
370
              15
390
0
  6
Continuous
 62
               7
100
AcDbLine
 10
320.30509901748337
 20
927.18498720317086
 30
0.0
 11
320.30509901748337
 21
935.18626933636426
 31
0.0
  0
ARC
  5
2FD
100
AcDbEntity
  8
PLT70-0102
370
              15
390
0
  6
Continuous
 62
               7
100
AcDbCircle
 10
310.30509901749247
 20
931.16672200316373
 30
0.0
 40
4.9999999999777174
100
AcDbArc
 50
180.0
 51
271.26642795581677
  0
ARC
  5
2FE
100
AcDbEntity
  8
PLT70-0102
370
              15
390
0
  6
Continuous
 62
               7
100
AcDbCircle
 10
319.30509901750702
 20
927.18498720317086
 30
0.0
 40
0.9999999999763857
100
AcDbArc
 50
268.9558746656304
 51
0.0
  0
ARC
  5
2FF
100
AcDbEntity
  8
PLT70-0102
370
              15
390
0
  6
Continuous
 62
               7
100
AcDbCircle
 10
315.27794502799543
 20
706.22168248773107
 30
0.0
 40
220.00000000000719
100
AcDbArc
 50
88.955874666617561
 51
91.266427956077621
  0
ARC
  5
300
100
AcDbEntity
  8
PLT70-0102
370
              15
390
0
  6
Continuous
 62
               7
100
AcDbCircle
 10
319.30509901750702
 20
935.18626933636426
 30
0.0
 40
0.9999999999810143
100
AcDbArc
 50
0.0
 51
88.992354490241382
  0
ARC
  5
301
100
AcDbEntity
  8
PLT70-0102
370
              15
390
0
  6
Continuous
 62
               7
100
AcDbCircle
 10
315.27794502799543
 20
706.22168248773107
 30
0.0
 40
230.00000000001845
100
AcDbArc
 50
88.992354489949079
 51
90.0
  0
LINE
  5
302
100
AcDbEntity
  8
PLT70-0102
370
              15
390
0
  6
Continuous
 62
               7
100
AcDbLine
 10
315.30509901748792
 20
936.22168088487854
 30
0.0
 11
315.30510223528017
 21
956.16673613515388
 31
0.0
  0
ARC
  5
303
100
AcDbEntity
  8
PLT70-0102
370
              15
390
0
  6
Continuous
 62
               7
100
AcDbCircle
 10
326.30508040111783
 20
990.49546243597524
 30
0.0
 40
0.9999999999763531
100
AcDbArc
 50
90.0
 51
180.0
  0
POLYLINE
  5
304
100
AcDbEntity
  8
PLT70-0102
370
              15
390
0
  6
Continuous
 62
               7
100
AcDb2dPolyline
 66
               1
 10
0.0
 20
0.0
 30
0.0
 75
               5
  0
VERTEX
  5
305
100
AcDbEntity
  8
PLT70-0102
370
              15
390
0
  6
Continuous
 62
               7
100
AcDbVertex
100
AcDb2dVertex
 10
325.30509901747882
 20
989.99552611443562
 30
0.0
  0
VERTEX
  5
306
100
AcDbEntity
  8
PLT70-0102
370
              15
390
0
  6
Continuous
 62
               7
100
AcDbVertex
100
AcDb2dVertex
 10
325.30509901747882
 20
983.57743839123088
 30
0.0
  0
VERTEX
  5
307
100
AcDbEntity
  8
PLT70-0102
370
              15
390
0
  6
Continuous
 62
               7
100
AcDbVertex
100
AcDb2dVertex
 10
325.25085648829054
 20
979.9487012952369
 30
0.0
  0
VERTEX
  5
308
100
AcDbEntity
  8
PLT70-0102
370
              15
390
0
  6
Continuous
 62
               7
100
AcDbVertex
100
AcDb2dVertex
 10
324.29948117508366
 20
976.62278552892587
 30
0.0
  0
VERTEX
  5
309
100
AcDbEntity
  8
PLT70-0102
370
              15
390
0
  6
Continuous
 62
               7
100
AcDbVertex
100
AcDb2dVertex
 10
322.33094567247099
 20
973.88227827347293
 30
0.0
  0
VERTEX
  5
30A
100
AcDbEntity
  8
PLT70-0102
370
              15
390
0
  6
Continuous
 62
               7
100
AcDbVertex
100
AcDb2dVertex
 10
319.56514797580303
 20
971.94707752405805
 30
0.0
  0
VERTEX
  5
30B
100
AcDbEntity
  8
PLT70-0102
370
              15
390
0
  6
Continuous
 62
               7
100
AcDbVertex
100
AcDb2dVertex
 10
316.66126307190189
 20
971.08688493782722
 30
0.0
  0
VERTEX
  5
30C
100
AcDbEntity
  8
PLT70-0102
370
              15
390
0
  6
Continuous
 62
               7
100
AcDbVertex
100
AcDb2dVertex
 10
313.49499277988889
 20
970.99552611443016
 30
0.0
  0
VERTEX
  5
30D
100
AcDbEntity
  8
PLT70-0102
370
              15
390
0
  6
Continuous
 62
               7
100
AcDbVertex
100
AcDb2dVertex
 10
310.30509901749247
 20
970.99552611443016
 30
0.0
  0
SEQEND
  5
30E
100
AcDbEntity
  8
PLT70-0102
370
              15
390
0
  6
Continuous
 62
               7
  0
LINE
  5
30F
100
AcDbEntity
  8
PLT70-0102
370
              15
390
0
  6
Continuous
 62
               7
100
AcDbLine
 10
335.31956724167776
 20
969.42941857887774
 30
0.0
 11
335.30508040113239
 21
990.49546243597524
 31
0.0
  0
LINE
  5
310
100
AcDbEntity
  8
PLT70-0102
370
              15
390
0
  6
Continuous
 62
               7
100
AcDbLine
 10
335.31956724167776
 20
969.42941857887774
 30
0.0
 11
335.30509901746973
 21
969.4453538839781
 31
0.0
  0
ARC
  5
311
100
AcDbEntity
  8
PLT70-0102
370
              15
390
0
  6
Continuous
 62
               7
100
AcDbCircle
 10
339.30509901737514
 20
969.4453538839781
 30
0.0
 40
3.9999999999726015
100
AcDbArc
 50
180.0
 51
265.59707520370665
  0
ARC
  5
312
100
AcDbEntity
  8
PLT70-0102
370
              15
390
0
  6
Continuous
 62
               7
100
AcDbCircle
 10
334.30508040104235
 20
990.49546243597524
 30
0.0
 40
0.9999999999763531
100
AcDbArc
 50
0.0
 51
90.0
  0
LINE
  5
313
100
AcDbEntity
  8
PLT70-0102
370
              15
390
0
  6
Continuous
 62
               7
100
AcDbLine
 10
334.30508040104235
 20
991.49546243600844
 30
0.0
 11
326.30508040111783
 21
991.49546243600844
 31
0.0
  0
ARC
  5
314
100
AcDbEntity
  8
PLT70-0102
370
              15
390
0
  6
Continuous
 62
               7
100
AcDbCircle
 10
310.30509901749247
 20
965.99552611437787
 30
0.0
 40
4.9999999999954525
100
AcDbArc
 50
90.0
 51
180.0
  0
LINE
  5
315
100
AcDbEntity
  8
PLT70-0102
370
              15
390
0
  6
Continuous
 62
               7
100
AcDbLine
 10
325.30508040114148
 20
1055.9954624358693
 30
0.0
 11
325.32310995484215
 21
1027.2651973054699
 31
0.0
  0
ARC
  5
316
100
AcDbEntity
  8
PLT70-0102
370
              15
390
0
  6
Continuous
 62
               7
100
AcDbCircle
 10
326.30508040111783
 20
1027.4954624360098
 30
0.0
 40
0.9999999999763531
100
AcDbArc
 50
180.0
 51
270.0
  0
POLYLINE
  5
317
100
AcDbEntity
  8
PLT70-0102
370
              15
390
0
  6
Continuous
 62
               7
100
AcDb2dPolyline
 66
               1
 10
0.0
 20
0.0
 30
0.0
 75
               5
  0
VERTEX
  5
318
100
AcDbEntity
  8
PLT70-0102
370
              15
390
0
  6
Continuous
 62
               7
100
AcDbVertex
100
AcDb2dVertex
 10
335.53252870544759
 20
1024.5870865905736
 30
0.0
  0
VERTEX
  5
319
100
AcDbEntity
  8
PLT70-0102
370
              15
390
0
  6
Continuous
 62
               7
100
AcDbVertex
100
AcDb2dVertex
 10
335.4876594785643
 20
1025.9135879855157
 30
0.0
  0
VERTEX
  5
31A
100
AcDbEntity
  8
PLT70-0102
370
              15
390
0
  6
Continuous
 62
               7
100
AcDbVertex
100
AcDb2dVertex
 10
335.52333130203272
 20
1026.8256660704956
 30
0.0
  0
VERTEX
  5
31B
100
AcDbEntity
  8
PLT70-0102
370
              15
390
0
  6
Continuous
 62
               7
100
AcDbVertex
100
AcDb2dVertex
 10
335.56489959014391
 20
1027.3101450547151
 30
0.0
  0
SEQEND
  5
31C
100
AcDbEntity
  8
PLT70-0102
370
              15
390
0
  6
Continuous
 62
               7
  0
ARC
  5
31D
100
AcDbEntity
  8
PLT70-0102
370
              15
390
0
  6
Continuous
 62
               7
100
AcDbCircle
 10
334.58222086935541
 20
1027.4954624360098
 30
0.0
 40
0.9999999999940883
100
AcDbArc
 50
270.0
 51
349.32036302403384
  0
LINE
  5
31E
100
AcDbEntity
  8
PLT70-0102
370
              15
390
0
  6
Continuous
 62
               7
100
AcDbLine
 10
326.30508040111783
 20
1026.4954624359766
 30
0.0
 11
334.58222086935541
 21
1026.4954624359766
 31
0.0
  0
ARC
  5
31F
100
AcDbEntity
  8
PLT70-0102
370
              15
390
0
  6
Continuous
 62
               7
100
AcDbCircle
 10
327.30508040103734
 20
1055.9954624358693
 30
0.0
 40
2.0000000000095497
100
AcDbArc
 50
90.0
 51
180.0
  0
CIRCLE
  5
320
100
AcDbEntity
  8
PLT70-0102
370
              15
390
0
  6
Continuous
 62
               7
100
AcDbCircle
 10
-650.86611548749079
 20
-364.07791353358016
 30
0.0
 40
17.499999999999961
  0
LINE
  5
321
100
AcDbEntity
  8
PLT70-0102
370
              15
390
0
  6
Continuous
 62
               7
100
AcDbLine
 10
325.25085648829054
 20
979.9487012952369
 30
0.0
 11
325.30508040114148
 21
990.49546243597524
 31
0.0
  0
LINE
  5
322
100
AcDbEntity
  8
PLT70-0102
370
              15
390
0
  6
Continuous
 62
               7
100
AcDbLine
 10
568.62882111406964
 20
780.99552611431898
 30
0.0
 11
586.96696006578838
 21
780.99552611443266
 31
0.0
  0
ARC
  5
323
100
AcDbEntity
  8
PLT70-0102
370
              15
390
0
  6
Continuous
 62
               7
100
AcDbCircle
 10
-387.86611615708034
 20
-587.49639462472169
 30
0.0
 40
225.00000066961005
100
AcDbArc
 50
179.97017598214666
 51
0.0
  0
LINE
  5
324
100
AcDbEntity
  8
PLT70-0102
370
              15
390
0
  6
Continuous
 62
               7
100
AcDbLine
 10
-696.84928552282588
 20
-812.50265408177609
 30
0.0
 11
-387.86611548749988
 21
-812.49639529433159
 31
0.0
  0
ARC
  5
325
100
AcDbEntity
  8
PLT70-0102
370
              15
390
0
  6
Continuous
 62
               7
100
AcDbCircle
 10
-387.86611615708034
 20
-587.49639462472169
 30
0.0
 40
185.00000000000034
100
AcDbArc
 50
179.96465023415846
 51
0.036272459736864
  0
ARC
  5
326
100
AcDbEntity
  8
PLT70-0102
370
              15
390
0
  6
Continuous
 62
               7
100
AcDbCircle
 10
-387.86611615708034
 20
-137.49639462470464
 30
0.0
 40
225.00000066960979
100
AcDbArc
 50
0.0
 51
180.02982401785334
  0
LINE
  5
327
100
AcDbEntity
  8
PLT70-0102
370
              15
390
0
  6
Continuous
 62
               7
100
AcDbLine
 10
-696.84928552282588
 20
87.509864832349706
 30
0.0
 11
-387.86611548749988
 21
87.503606044905212
 31
0.0
  0
ARC
  5
328
100
AcDbEntity
  8
PLT70-0102
370
              15
390
0
  6
Continuous
 62
               7
100
AcDbCircle
 10
-387.86611615708034
 20
-137.49639462470464
 30
0.0
 40
185.00000000000006
100
AcDbArc
 50
359.96372754026316
 51
180.03534976584152
  0
CIRCLE
  5
329
100
AcDbEntity
  8
PLT70-0102
370
              15
390
0
  6
STYLE_12
 62
               7
100
AcDbCircle
 10
-650.86611548749079
 20
-264.07791353358039
 30
0.0
 40
17.499999999999961
  0
CIRCLE
  5
32A
100
AcDbEntity
  8
PLT70-0102
370
              15
390
0
  6
STYLE_12
 62
               7
100
AcDbCircle
 10
-650.86611548749079
 20
-464.07791353358016
 30
0.0
 40
17.499999999999961
  0
LINE
  5
32B
100
AcDbEntity
  8
PLT70-0102
370
              15
390
0
  6
Continuous
 62
               7
100
AcDbLine
 10
305.30508040115956
 20
-364.90130038671828
 30
0.0
 11
305.30508040115956
 21
-806.68245358989884
 31
0.0
  0
POLYLINE
  5
32C
100
AcDbEntity
  8
PLT70-0102
370
              15
390
0
  6
Continuous
 62
               7
100
AcDb2dPolyline
 66
               1
 10
0.0
 20
0.0
 30
0.0
 75
               5
  0
VERTEX
  5
32D
100
AcDbEntity
  8
PLT70-0102
370
              15
390
0
  6
Continuous
 62
               7
100
AcDbVertex
100
AcDb2dVertex
 10
305.30508040235327
 20
79.634374633207557
 30
0.0
  0
VERTEX
  5
32E
100
AcDbEntity
  8
PLT70-0102
370
              15
390
0
  6
Continuous
 62
               7
100
AcDbVertex
100
AcDb2dVertex
 10
305.40020146375946
 20
80.605133305915018
 30
0.0
  0
VERTEX
  5
32F
100
AcDbEntity
  8
PLT70-0102
370
              15
390
0
  6
Continuous
 62
               7
100
AcDbVertex
100
AcDb2dVertex
 10
305.6827389692719
 20
81.540777217916201
 30
0.0
  0
VERTEX
  5
330
100
AcDbEntity
  8
PLT70-0102
370
              15
390
0
  6
Continuous
 62
               7
100
AcDbVertex
100
AcDb2dVertex
 10
306.14189750966625
 20
82.403581060808577
 30
0.0
  0
VERTEX
  5
331
100
AcDbEntity
  8
PLT70-0102
370
              15
390
0
  6
Continuous
 62
               7
100
AcDbVertex
100
AcDb2dVertex
 10
306.76013250115852
 20
83.160576844313098
 30
0.0
  0
VERTEX
  5
332
100
AcDbEntity
  8
PLT70-0102
370
              15
390
0
  6
Continuous
 62
               7
100
AcDbVertex
100
AcDb2dVertex
 10
307.51382100166802
 20
83.782839535309066
 30
0.0
  0
VERTEX
  5
333
100
AcDbEntity
  8
PLT70-0102
370
              15
390
0
  6
Continuous
 62
               7
100
AcDbVertex
100
AcDb2dVertex
 10
308.37416435025966
 20
84.246592292109838
 30
0.0
  0
VERTEX
  5
334
100
AcDbEntity
  8
PLT70-0102
370
              15
390
0
  6
Continuous
 62
               7
100
AcDbVertex
100
AcDb2dVertex
 10
309.30828857305437
 20
84.534114984712076
 30
0.0
  0
VERTEX
  5
335
100
AcDbEntity
  8
PLT70-0102
370
              15
390
0
  6
Continuous
 62
               7
100
AcDbVertex
100
AcDb2dVertex
 10
310.28050050676848
 20
84.634421285719512
 30
0.0
  0
SEQEND
  5
336
100
AcDbEntity
  8
PLT70-0102
370
              15
390
0
  6
Continuous
 62
               7
  0
LINE
  5
337
100
AcDbEntity
  8
PLT70-0102
370
              15
390
0
  6
Continuous
 62
               7
100
AcDbLine
 10
730.30508028459803
 20
-735.05335420601614
 30
0.0
 11
730.30508028459803
 21
10.097527138855753
 31
0.0
  0
SPLINE
  5
338
100
AcDbEntity
  8
PLT70-0102
370
              15
390
0
  6
Continuous
 62
               7
100
AcDbSpline
210
0.0
220
0.0
230
1.0
 70
               8
 71
               2
 72
               8
 73
               5
 74
               0
 42
0.000001
 43
0.000001
 40
0.0
 40
0.0
 40
0.0
 40
1.0
 40
2.0
 40
3.0
 40
3.0
 40
3.0
 10
310.29950897798153
 20
84.635749355718374
 30
0.0
 10
466.84173828786675
 20
86.305873566131609
 30
0.0
 10
531.9249646821105
 20
89.355926224526272
 30
0.0
 10
641.32849280504126
 20
76.986591865019463
 30
0.0
 10
727.93976388790725
 20
14.347049946389717
 30
0.0
  0
ARC
  5
339
100
AcDbEntity
  8
PLT70-0102
370
              15
390
0
  6
Continuous
 62
               7
100
AcDbCircle
 10
725.30508028459803
 20
10.097527348443691
 30
0.0
 40
5.0000000000000044
100
AcDbArc
 50
359.99999759829922
 51
58.201285926960047
  0
POLYLINE
  5
33A
100
AcDbEntity
  8
PLT70-0102
370
              15
390
0
  6
Continuous
 62
               7
100
AcDb2dPolyline
 66
               1
 10
0.0
 20
0.0
 30
0.0
 75
               5
  0
VERTEX
  5
33B
100
AcDbEntity
  8
PLT70-0102
370
              15
390
0
  6
Continuous
 62
               7
100
AcDbVertex
100
AcDb2dVertex
 10
305.30508040235327
 20
-804.59020170036797
 30
0.0
  0
VERTEX
  5
33C
100
AcDbEntity
  8
PLT70-0102
370
              15
390
0
  6
Continuous
 62
               7
100
AcDbVertex
100
AcDb2dVertex
 10
305.40020146375946
 20
-805.56096037307543
 30
0.0
  0
VERTEX
  5
33D
100
AcDbEntity
  8
PLT70-0102
370
              15
390
0
  6
Continuous
 62
               7
100
AcDbVertex
100
AcDb2dVertex
 10
305.6827389692719
 20
-806.49660428507673
 30
0.0
  0
VERTEX
  5
33E
100
AcDbEntity
  8
PLT70-0102
370
              15
390
0
  6
Continuous
 62
               7
100
AcDbVertex
100
AcDb2dVertex
 10
306.14189750966625
 20
-807.35940812796912
 30
0.0
  0
VERTEX
  5
33F
100
AcDbEntity
  8
PLT70-0102
370
              15
390
0
  6
Continuous
 62
               7
100
AcDbVertex
100
AcDb2dVertex
 10
306.76013250115852
 20
-808.11640391147353
 30
0.0
  0
VERTEX
  5
340
100
AcDbEntity
  8
PLT70-0102
370
              15
390
0
  6
Continuous
 62
               7
100
AcDbVertex
100
AcDb2dVertex
 10
307.51382100166802
 20
-808.73866660246949
 30
0.0
  0
VERTEX
  5
341
100
AcDbEntity
  8
PLT70-0102
370
              15
390
0
  6
Continuous
 62
               7
100
AcDbVertex
100
AcDb2dVertex
 10
308.37416435025966
 20
-809.20241935927038
 30
0.0
  0
VERTEX
  5
342
100
AcDbEntity
  8
PLT70-0102
370
              15
390
0
  6
Continuous
 62
               7
100
AcDbVertex
100
AcDb2dVertex
 10
309.30828857305437
 20
-809.4899420518725
 30
0.0
  0
VERTEX
  5
343
100
AcDbEntity
  8
PLT70-0102
370
              15
390
0
  6
Continuous
 62
               7
100
AcDbVertex
100
AcDb2dVertex
 10
310.28050050676848
 20
-809.59024835288005
 30
0.0
  0
SEQEND
  5
344
100
AcDbEntity
  8
PLT70-0102
370
              15
390
0
  6
Continuous
 62
               7
  0
SPLINE
  5
345
100
AcDbEntity
  8
PLT70-0102
370
              15
390
0
  6
Continuous
 62
               7
100
AcDbSpline
210
0.0
220
0.0
230
1.0
 70
               8
 71
               2
 72
               8
 73
               5
 74
               0
 42
0.000001
 43
0.000001
 40
0.0
 40
0.0
 40
0.0
 40
1.0
 40
2.0
 40
3.0
 40
3.0
 40
3.0
 10
310.29950897798153
 20
-809.59157642287869
 30
0.0
 10
466.84173828786675
 20
-811.26170063329243
 30
0.0
 10
531.9249646821105
 20
-814.31175329168673
 30
0.0
 10
641.32849280504126
 20
-801.94241893217986
 30
0.0
 10
727.93976388790725
 20
-739.30287701355007
 30
0.0
  0
ARC
  5
346
100
AcDbEntity
  8
PLT70-0102
370
              15
390
0
  6
Continuous
 62
               7
100
AcDbCircle
 10
725.30508028459803
 20
-735.05335441560408
 30
0.0
 40
5.0000000000000124
100
AcDbArc
 50
301.79871407304023
 51
0.0000024017008968
  0
LINE
  5
347
100
AcDbEntity
  8
PLT70-0102
370
              15
390
0
  6
STYLE_12
 62
               7
100
AcDbLine
 10
415.30515515782042
 20
-207.2757387645878
 30
0.0
 11
375.30515515782042
 21
-207.23468803449384
 31
0.0
  0
LINE
  5
348
100
AcDbEntity
  8
PLT70-0102
370
              15
390
0
  6
STYLE_12
 62
               7
100
AcDbLine
 10
395.32568052286751
 20
-187.25521339954076
 30
0.0
 11
395.28462979277344
 21
-227.25521339954082
 31
0.0
  0
CIRCLE
  5
349
100
AcDbEntity
  8
PLT70-0102
370
              15
390
0
  6
STYLE_12
 62
               7
100
AcDbCircle
 10
395.32636983129885
 20
-207.27573876458786
 30
0.0
 40
9.9999999999999662
  0
LINE
  5
34A
100
AcDbEntity
  8
PLT70-0102
370
              15
390
0
  6
STYLE_12
 62
               7
100
AcDbLine
 10
415.30515515782042
 20
-517.27573876458735
 30
0.0
 11
375.30515515782042
 21
-517.23468803449339
 31
0.0
  0
LINE
  5
34B
100
AcDbEntity
  8
PLT70-0102
370
              15
390
0
  6
STYLE_12
 62
               7
100
AcDbLine
 10
395.32568052286751
 20
-497.25521339954037
 30
0.0
 11
395.28462979277344
 21
-537.25521339954037
 31
0.0
  0
CIRCLE
  5
34C
100
AcDbEntity
  8
PLT70-0102
370
              15
390
0
  6
STYLE_12
 62
               7
100
AcDbCircle
 10
395.32636983129885
 20
-517.27573876458746
 30
0.0
 40
10.000000000000023
  0
ARC
  5
34D
100
AcDbEntity
  8
PLT70-0102
370
              15
390
0
  6
Continuous
 62
               7
100
AcDbCircle
 10
538.69092695803079
 20
-389.97791353361197
 30
0.0
 40
4.9999999999827196
100
AcDbArc
 50
90.0
 51
155.41308135247769
  0
LINE
  5
34E
100
AcDbEntity
  8
PLT70-0102
370
              15
390
0
  6
Continuous
 62
               7
100
AcDbLine
 10
545.69092695814948
 20
-384.97791353350271
 30
0.0
 11
538.69092695803079
 21
-384.97791353350271
 31
0.0
  0
LINE
  5
34F
100
AcDbEntity
  8
PLT70-0102
370
              15
390
0
  6
Continuous
 62
               7
100
AcDbLine
 10
588.30508040115978
 20
-384.97791353350271
 30
0.0
 11
545.69092695814948
 21
-384.97791353350271
 31
0.0
  0
ARC
  5
350
100
AcDbEntity
  8
PLT70-0102
370
              15
390
0
  6
Continuous
 62
               7
100
AcDbCircle
 10
505.9550063670365
 20
-374.99927864720792
 30
0.0
 40
30.999999999994809
100
AcDbArc
 50
306.72981327879529
 51
335.41308135247124
  0
ARC
  5
351
100
AcDbEntity
  8
PLT70-0102
370
              15
390
0
  6
Continuous
 62
               7
100
AcDbCircle
 10
536.45516172352859
 20
-415.87397159079717
 30
0.0
 40
19.999999999999897
100
AcDbArc
 50
126.72981327873941
 51
157.15696295207891
  0
ARC
  5
352
100
AcDbEntity
  8
PLT70-0102
370
              15
390
0
  6
Continuous
 62
               7
100
AcDbCircle
 10
538.69092695803079
 20
-334.9779135335483
 30
0.0
 40
4.9999999999827631
100
AcDbArc
 50
204.58691864752234
 51
270.0
  0
LINE
  5
353
100
AcDbEntity
  8
PLT70-0102
370
              15
390
0
  6
Continuous
 62
               7
100
AcDbLine
 10
545.69092695814948
 20
-339.97791353365733
 30
0.0
 11
538.69092695803079
 21
-339.97791353365733
 31
0.0
  0
LINE
  5
354
100
AcDbEntity
  8
PLT70-0102
370
              15
390
0
  6
Continuous
 62
               7
100
AcDbLine
 10
588.30508040115978
 20
-339.97791353365733
 30
0.0
 11
545.69092695814948
 21
-339.97791353365733
 31
0.0
  0
ARC
  5
355
100
AcDbEntity
  8
PLT70-0102
370
              15
390
0
  6
Continuous
 62
               7
100
AcDbCircle
 10
505.9550063670365
 20
-349.95654841995236
 30
0.0
 40
30.999999999994753
100
AcDbArc
 50
24.586918647528798
 51
53.270186721204716
  0
ARC
  5
356
100
AcDbEntity
  8
PLT70-0102
370
              15
390
0
  6
Continuous
 62
               7
100
AcDbCircle
 10
536.45516172352859
 20
-309.08185547636316
 30
0.0
 40
19.999999999999879
100
AcDbArc
 50
202.84303704792094
 51
233.2701867212605
  0
LINE
  5
357
100
AcDbEntity
  8
PLT70-0102
370
              15
390
0
  6
STYLE_12
 62
               7
100
AcDbLine
 10
588.30508040115978
 20
-384.97791353350271
 30
0.0
 11
588.30508040115978
 21
-339.97791353354364
 31
0.0
  0
ARC
  5
358
100
AcDbEntity
  8
PLT70-0102
370
              15
390
0
  6
STYLE_12
 62
               7
100
AcDbCircle
 10
315.27789205127033
 20
-173.1728497589877
 30
0.0
 40
219.99999999997698
100
AcDbArc
 50
82.108913648880645
 51
91.266427956077635
  0
ARC
  5
359
100
AcDbEntity
  8
PLT70-0102
370
              15
390
0
  6
STYLE_12
 62
               7
100
AcDbCircle
 10
310.30504604076737
 20
51.772189756274628
 30
0.0
 40
4.9999999999954525
100
AcDbArc
 50
180.0
 51
271.2664279558162
  0
LINE
  5
35A
100
AcDbEntity
  8
PLT70-0102
370
              15
390
0
  6
STYLE_12
 62
               7
100
AcDbLine
 10
518.02372544753939
 20
-316.84601395008258
 30
0.0
 11
518.02370101766314
 21
-153.36220280387158
 31
0.0
  0
ARC
  5
35B
100
AcDbEntity
  8
PLT70-0102
370
              15
390
0
  6
STYLE_12
 62
               7
100
AcDbCircle
 10
318.02370101766678
 20
-153.36223308208469
 30
0.0
 40
199.99999999999866
100
AcDbArc
 50
0.00000867406911
 51
82.108913648881099
  0
ARC
  5
35C
100
AcDbEntity
  8
PLT70-0102
370
              15
390
0
  6
STYLE_12
 62
               7
100
AcDbCircle
 10
315.27789205127033
 20
-551.7829773081728
 30
0.0
 40
219.99999999997684
100
AcDbArc
 50
268.73357204392244
 51
277.89108635111933
  0
ARC
  5
35D
100
AcDbEntity
  8
PLT70-0102
370
              15
390
0
  6
STYLE_12
 62
               7
100
AcDbCircle
 10
310.30504604076737
 20
-776.72801682343493
 30
0.0
 40
4.9999999999954285
100
AcDbArc
 50
88.733572044183802
 51
180.0
  0
LINE
  5
35E
100
AcDbEntity
  8
PLT70-0102
370
              15
390
0
  6
STYLE_12
 62
               7
100
AcDbLine
 10
518.02372544753939
 20
-408.10981311707769
 30
0.0
 11
518.02370101766314
 21
-571.59362426328892
 31
0.0
  0
ARC
  5
35F
100
AcDbEntity
  8
PLT70-0102
370
              15
390
0
  6
STYLE_12
 62
               7
100
AcDbCircle
 10
318.02370101766678
 20
-571.59359398507581
 30
0.0
 40
199.99999999999864
100
AcDbArc
 50
277.89108635111893
 51
359.99999132593086
  0
LINE
  5
360
100
AcDbEntity
  8
PLT70-0102
370
              15
390
0
  6
STYLE_12
 62
               7
100
AcDbLine
 10
415.30515515782042
 20
-97.2757387645878
 30
0.0
 11
375.30515515782042
 21
-97.234688034493843
 31
0.0
  0
LINE
  5
361
100
AcDbEntity
  8
PLT70-0102
370
              15
390
0
  6
STYLE_12
 62
               7
100
AcDbLine
 10
395.32568052286751
 20
-77.255213399540764
 30
0.0
 11
395.28462979277344
 21
-117.25521339954082
 31
0.0
  0
CIRCLE
  5
362
100
AcDbEntity
  8
PLT70-0102
370
              15
390
0
  6
STYLE_12
 62
               7
100
AcDbCircle
 10
395.32636983129885
 20
-97.275738764587857
 30
0.0
 40
9.9999999999999662
  0
LINE
  5
363
100
AcDbEntity
  8
PLT70-0102
370
              15
390
0
  6
STYLE_12
 62
               7
100
AcDbLine
 10
415.30515515782042
 20
-627.27573876458735
 30
0.0
 11
375.30515515782042
 21
-627.23468803449339
 31
0.0
  0
LINE
  5
364
100
AcDbEntity
  8
PLT70-0102
370
              15
390
0
  6
STYLE_12
 62
               7
100
AcDbLine
 10
395.32568052286751
 20
-607.25521339954037
 30
0.0
 11
395.28462979277344
 21
-647.25521339954037
 31
0.0
  0
CIRCLE
  5
365
100
AcDbEntity
  8
PLT70-0102
370
              15
390
0
  6
STYLE_12
 62
               7
100
AcDbCircle
 10
395.32636983129885
 20
-627.27573876458746
 30
0.0
 40
10.000000000000023
  0
CIRCLE
  5
366
100
AcDbEntity
  8
PLT70-0102
370
              15
390
0
  6
Continuous
 62
               7
100
AcDbCircle
 10
-387.89491959884026
 20
-362.49639462471305
 30
0.0
 40
34.999999999999964
  0
ENDSEC
  0
SECTION
  2
OBJECTS
  0
DICTIONARY
  5
19
100
AcDbDictionary
280
               0
281
               1
  3
ACAD_GROUP
350
1A
  3
ACAD_MLINESTYLE
350
1B
  3
ACAD_LAYOUT
350
1E
  3
ACAD_PLOTSETTINGS
350
22
  3
ACAD_PLOTSTYLENAME
350
1F
  0
DICTIONARY
  5
1A
102
{ACAD_REACTORS
330
19
102
}
100
AcDbDictionary
280
               0
281
               1
  0
DICTIONARY
  5
1B
102
{ACAD_REACTORS
330
19
102
}
100
AcDbDictionary
280
               0
281
               1
  3
Standard
350
1C
  0
MLINESTYLE
  5
1C
102
{ACAD_REACTORS
330
1B
102
}
100
AcDbMlineStyle
  2
Standard
 70
               0
  3

 62
               0
 51
90.0
 52
90.0
 71
               2
 49
0.5
 62
             256
  6
ByLayer
 49
-0.5
 62
             256
  6
ByLayer
  0
ACDBDICTIONARYWDFLT
  5
1F
102
{ACAD_REACTORS
330
19
102
}
100
AcDbDictionary
281
               1
  3
Normal
350
1D
100
AcDbDictionaryWithDefault
340
1D
  0
ACDBPLACEHOLDER
  5
1D
102
{ACAD_REACTORS
330
1F
102
}
  0
LAYOUT
  5
20
102
{ACAD_REACTORS
330
1E
102
}
100
AcDbPlotSettings
  1

  2

  4

  6

 40
0.0
 41
0.0
 42
0.0
 43
0.0
 44
0.0
 45
0.0
 46
0.0
 47
0.0
 48
0.0
 49
0.0
140
0.0
141
0.0
142
1.0
143
1.0
 70
            1024
 72
               0
 73
               0
 74
               0
  7

 75
               0
147
1.0
148
0.0
149
0.0
100
AcDbLayout
  1
Model
 70
               0
 71
               0
 10
0.0
 20
0.0
 11
0.0
 21
0.0
 12
0.0
 22
0.0
 32
0.0
 14
0.0
 24
0.0
 34
0.0
 15
0.0
 25
0.0
 35
0.0
146
0.0
 13
0.0
 23
0.0
 33
0.0
 16
0.0
 26
0.0
 36
0.0
 17
0.0
 27
0.0
 37
0.0
 76
               0
330
A
331
0
345
0
346
0
  0
LAYOUT
  5
21
102
{ACAD_REACTORS
330
1E
102
}
100
AcDbPlotSettings
  1

  2

  4

  6

 40
0.0
 41
0.0
 42
0.0
 43
0.0
 44
0.0
 45
0.0
 46
0.0
 47
0.0
 48
0.0
 49
0.0
140
0.0
141
0.0
142
1.0
143
1.0
 70
               0
 72
               0
 73
               0
 74
               0
  7

 75
               0
147
1.0
148
0.0
149
0.0
100
AcDbLayout
  1
Layout1
 70
               0
 71
               0
 10
0.0
 20
0.0
 11
0.0
 21
0.0
 12
0.0
 22
0.0
 32
0.0
 14
0.0
 24
0.0
 34
0.0
 15
0.0
 25
0.0
 35
0.0
146
0.0
 13
0.0
 23
0.0
 33
0.0
 16
0.0
 26
0.0
 36
0.0
 17
0.0
 27
0.0
 37
0.0
 76
               0
330
B
331
0
345
0
346
0
  0
DICTIONARY
  5
1E
102
{ACAD_REACTORS
330
19
102
}
100
AcDbDictionary
280
               0
281
               1
  3
Layout1
350
21
  3
Model
350
20
  0
DICTIONARY
  5
22
102
{ACAD_REACTORS
330
19
102
}
100
AcDbDictionary
280
               0
281
               1
  0
ENDSEC
  0
EOF
